Welcome Guest ( Log In | Register )

> The Walrus Resists - Sons Of Gehenna [ep] (2019), Death Metal
post Jan 11 2019, 16:58:49
Post #1

Мегаманьяк
***********
Group: Металариец
Posts: 1,642
Releases: 1418
From: Одесса
On Forums: 10 years 9 months
Thanks: 11428 time(s)
Ukraine


(IMG:http://metalarea.org/images/audiocovers/2019_Jan/acov_tid315754_thumb.jpg)

*Artist: The Walrus Resists
*Album: Sons Of Gehenna [ep]
*Year: 2019
*Genre: Death Metal
*Country: France (IMG:http://metalarea.org/forum/style_images/flags/France.png)
*Format: mp3@CBR320kbps
*Size: 54MB

Tracklist:
1. Ignorantia
2. Credentia
3. Avaritia
4. Dominatio
******************************
Total playing time: 24:30



Extended info
Line - up:

Den - Bass
Richy - Drums
Clement - Guitars
Kam - Guitars
Tobby - Vocals

(IMG:https://www.metal-archives.com/images/3/5/4/0/3540305678_photo.jpg?2730)


Technical info
(IMG:http://metalarea.org/images/spectrogram/2019_Jan/581c579ef2840839c1c252208a63196b.png)
Input File: 03-the_walrus_resists-avaritia-8839855b.mp3
Channels : 2
Sample Rate : 44100
Precision : 16-bit
Duration : 00:07:53.76 = 20892816 samples = 35532 CDDA sectors
File Size : 19.0M
Bit Rate : 320k
Sample Encoding: MPEG audio (layer I, II or III)
Comments :
Title=Avaritia
Artist=The Walrus Resists
Album=Sons of Gehenna (EP)
Tracknumber=3
Year=2019
Genre=22



Register


Go to the top of the page
  Insert nick Quick quote
+Quote Post
 
Start new topic
Replies (1 - 1)
post Jan 11 2019, 22:01:32
Post #2

Социопат.Маргинал. Мизантроп.Нигилист. Перверзный нарциссист.
**************
Group: Металариец
Posts: 5,462
Releases: 667
From: Город-герой Ленинград
On Forums: 8 years 1 month
Thanks: 6100 time(s)
Russian Federation


ЦИТАТА(Necrokilldozer @ 11th January 2019 - 16:58:49) *
Death Metal
ты сам-то слушал этот "дет" метал?
Go to the top of the page
  Insert nick Quick quote
+Quote Post

Reply to this topicStart new topic
1 User(s) are reading this topic (1 Guests and 0 Anonymous Users)
0 Members:

 



- Lo-Fi Version Support form
Copyrights and abuse reports form
Time is now: 25th March 2019 - 11:04:50