Welcome Guest ( Log In | Register )

> Releases Upload / Добавление релизов

Добавить релиз тут / Click here to add release
Рекомендованные обменники / Recommended file shares

 
Reply to this topicStart new topic
> Dark Doom - Long Forgotten Lore (The Demos) [compilation] (2019), Melodic Black/Death Metal
post Jan 11 2019, 18:15:17
Post #1

Мегаманьяк
***********
Group: Металариец
Posts: 1,527
Releases: 1309
From: Одесса
On Forums: 10 years 7 months
Thanks: 10359 time(s)
Ukraine


(IMG:http://metalarea.org/images/audiocovers/2019_Jan/acov_tid315758_thumb.jpg)

*Artist: Dark Doom
*Album: Long Forgotten Lore (The Demos) [compilation]
*Year: 2019
*Genre: Melodic Black/Death Metal
*Country: United Kingdom (IMG:http://metalarea.org/forum/style_images/flags/United%20Kingdom.png)
*Format: mp3@CBR320kbps
*Size: 104MB

Tracklist:
1. Long Forgotten Lore 10:24
2. Knock in the Night 04:03
3. Church Watch 02:08
4. (Unpronounceable Noise) 03:37
5. Puritanical Satanic Ritual of Virgin Sacrifice 04:59
6. The Forbidden Path 00:58 instrumental
7. Kultimatum 04:28
8. Spirit of the Forest 03:26
9. Serve or Suffer 02:36
10. Faded Soul 03:39
11. Santa Thawed 03:40
******************************
Total playing time: 43:58



Extended info
Line - up:

Alex Wills - Everything (Alex Wills)

(IMG:https://www.metal-archives.com/images/3/5/4/0/3540434278_photo.jpg?2132)


Technical info
(IMG:http://metalarea.org/images/spectrogram/2019_Jan/3c5fd3c93561d284a8845895370271c8.png)
Input File: 11. Santa Thawed.mp3
Channels : 2
Sample Rate : 48000
Precision : 16-bit
Duration : 00:03:40.06 = 10562832 samples ~ 16504.4 CDDA sectors
File Size : 8.90M
Bit Rate : 323k
Sample Encoding: MPEG audio (layer I, II or III)
Comments :
Title=Santa Thawed
Artist=Dark Doom
Album=Long Forgotten Lore (The Demos) (Compilation)
Tracknumber=11
Year=2019
Genre=Melodic Black / Death Metal



Register


Go to the top of the page
  Insert nick Quick quote
+Quote Post

Reply to this topicStart new topic
2 User(s) are reading this topic (2 Guests and 0 Anonymous Users)
0 Members:

 



- Lo-Fi Version Support form
Copyrights and abuse reports form
Time is now: 20th January 2019 - 01:39:10