Welcome Guest ( Log In | Register )

 
Reply to this topicStart new topic
> Weird Tales - Hell Services Cost A Lot (2019), Doom/Sludge/Stoner Metal
post Jan 11 2019, 18:52:09
Post #1

Мегаманьяк
***********
Group: Металариец
Posts: 1,758
Releases: 1527
From: Одесса
On Forums: 10 years 11 months
Thanks: 12599 time(s)
Ukraine


(IMG:http://metalarea.org/images/audiocovers/2019_Jan/acov_tid315759_thumb.jpg)

*Artist: Weird Tales
*Album: Hell Services Cost A Lot
*Year: 2019
*Genre: Doom/Sludge/Stoner Metal
*Country: Poland (IMG:http://metalarea.org/forum/style_images/flags/Poland.png)
*Format: mp3@CBR320kbps
*Size: 132MB

Tracklist:
1. Madness 10:43
2. Crawling Pain 07:08
3. LIE 08:30
4. Nightmare 06:17
5. Bitchcrusher 06:14
6. Warnings 05:37
7. Dead Man 11:06
******************************
Total playing time: 55:35





Technical info
(IMG:http://metalarea.org/images/spectrogram/2019_Jan/5b808d5894e8ac760b63e14c63993a90.png)
Input File: 04. Nightmare.mp3
Channels : 2
Sample Rate : 48000
Precision : 16-bit
Duration : 00:06:17.40 = 18115344 samples ~ 28305.2 CDDA sectors
File Size : 15.2M
Bit Rate : 322k
Sample Encoding: MPEG audio (layer I, II or III)
Comments :
Title=Nightmare
Artist=Weird Tales
Album=Hell Services Cost a Lot
Tracknumber=4
Year=2019
Genre=Doom / Sludge / Stoner Metal



Register


Go to the top of the page
  Insert nick Quick quote
+Quote Post

Reply to this topicStart new topic
2 User(s) are reading this topic (2 Guests and 0 Anonymous Users)
0 Members:

 



- Lo-Fi Version Support form
Copyrights and abuse reports form
Time is now: 26th May 2019 - 13:13:05