Welcome Guest ( Log In | Register )

> Releases Upload / Добавление релизов

Добавить релиз тут / Click here to add release
Рекомендованные обменники / Recommended file shares

 
Reply to this topicStart new topic
> Rotten Light - A Self​-​rightous Farewell (2019), Depressive Black Metal (D13)
post Jan 11 2019, 18:58:55
Post #1

Мегаманьяк
***********
Group: Металариец
Posts: 1,527
Releases: 1309
From: Одесса
On Forums: 10 years 7 months
Thanks: 10359 time(s)
Ukraine


(IMG:http://metalarea.org/images/audiocovers/2019_Jan/acov_tid315760_thumb.jpg)

*Artist: Rotten Light
*Album: A Self​-​rightous Farewell
*Year: 2019
*Genre: Depressive Black Metal
*Country: Spain (IMG:http://metalarea.org/forum/style_images/flags/Spain.png)
*Format: mp3@CBR320kbps
*Size: 80MB

Tracklist:
1. The Idealization of Death and Love by a Decadent Youth 03:32
2. Suicidal Anchorite 05:09
3. Too Late to be Saved 04:51
4. The Burden 06:47
5. I am a Nightmare that Shall End with my Death 06:36
6. Danza con Satan 06:20
******************************
Total playing time: 33:15



Extended info
Line - up:

Silence - All instruments, Vocals (Abaddon's Abyss, Shadow Frost, Theslecre, Traumatic Memories, Occasum Solis, ex-Suicidal Psychosis, Cyanide Atmosphera, Doomvoid VIIV, Grimmist, Konrad, Mae'r Danae Sŵn, Nocturnal Graveland, The Eternal Chain, Theslecre, ex-2003 VB16, ex-Life Is My Prison... Death Is the Escape, ex-Silence in the Woods)

(IMG:https://www.metal-archives.com/images/3/5/4/0/3540365503_photo.jpg?5645)


Technical info
(IMG:http://metalarea.org/images/spectrogram/2019_Jan/ee4c3d0c6a0ac3600abadb7903536a77.png)
Input File: 05. I am a Nightmare that Shall End with my Death.mp3
Channels : 2
Sample Rate : 48000
Precision : 16-bit
Duration : 00:06:36.24 = 19019664 samples ~ 29718.2 CDDA sectors
File Size : 15.9M
Bit Rate : 320k
Sample Encoding: MPEG audio (layer I, II or III)
Comments :
Title=I am a Nightmare that Shall End with my Death
Artist=Rotten Light
Album=A Self-rightous Farewell
Tracknumber=5
Year=2019
Genre=Depressive Black Metal



Register


Go to the top of the page
  Insert nick Quick quote
+Quote Post

Reply to this topicStart new topic
1 User(s) are reading this topic (1 Guests and 0 Anonymous Users)
0 Members:

 



- Lo-Fi Version Support form
Copyrights and abuse reports form
Time is now: 20th January 2019 - 02:09:02