Welcome Guest ( Log In | Register )

 
Reply to this topicStart new topic
> Chaos Path - The Awakening [ep] (2018), Blackened Thrash/Death Metal
post Jan 11 2019, 19:11:44
Post #1

Правь статус, ####!111
**************
Group: Металариец
Posts: 17,056
Releases: 11579
From: Г.Харьков
On Forums: 7 years 2 weeks
Thanks: 193404 time(s)
Unknown


(IMG:https://metalarea.org/images/audiocovers/2019_Jan/acov_tid315761_thumb.jpg)

*Artist: Chaos Path
*Album: The Awakening [ep]
*Year: 2018
*Genre: Blackened Thrash/Death Metal
*Country: Germany (IMG:https://metalarea.org/forum/style_images/flags/Germany.png)
*Format: mp3@CBR320kbps
*Size: 50MB

Tracklist:
1. Doom 05:03
2. Kriig 04:26
3. Open the Gates 02:46
4. Voices of Bitterness 02:37
5. Over Your Threshold 03:20
6. The Awakening (Chaos Path Part 1) 04:55
******************************
Total playing time: 23:07




Extended info
Richy Backfire Bass (2016-present)
Chaosblaster Drums (2016-present)
See also: Atlantis, Gymir
Viides Ratsastaja Guitars (2016-present)
See also: ex-My Cold Embrace
God of Carnage Guitars (2016-present)
Ancient Weapon Vocals (2016-present)
See also: ex-Ancient Wargod, ex-Wargod, ex-Heaven's Doom, ex-Limited Editon, ex-Reflector, ex-Tremor


Technical info
(IMG:https://metalarea.org/images/spectrogram/2019_Jan/c0bad7f94eeb92c354f6b55154f4a4b6.png)
Input File: 02 - Kriig.mp3
Channels : 2
Sample Rate : 44100
Precision : 16-bit
Duration : 00:04:26.34 = 11745418 samples = 19975.2 CDDA sectors
File Size : 10.9M
Bit Rate : 326k
Sample Encoding: MPEG audio (layer I, II or III)
Comments :
Title=Kriig
Artist=Chaos Path
Album=The Awakening
Tracknumber=2/6
Year=2018
Genre=Metal



Register


Go to the top of the page
  Insert nick Quick quote
+Quote Post

Reply to this topicStart new topic
2 User(s) are reading this topic (2 Guests and 0 Anonymous Users)
0 Members:

 



- Lo-Fi Version Support form
Copyrights and abuse reports form
Time is now: 26th May 2019 - 12:47:55