Welcome Guest ( Log In | Register )

 
Reply to this topicStart new topic
> Redraw - Pangea [ep] (2019), Thrash/Heavy Metal
post Jan 12 2019, 02:56:50
Post #1

Правь статус, ####!111
**************
Group: Металариец
Posts: 17,390
Releases: 11798
From: Г.Харьков
On Forums: 7 years 1 month
Thanks: 197370 time(s)
Unknown


(IMG:https://metalarea.org/images/audiocovers/2019_Jan/acov_tid315765_thumb.jpg)

*Artist: Redraw
*Album: Pangea [ep]
*Year: 2019
*Genre: Thrash/Heavy Metal
*Country: Switzerland (IMG:https://metalarea.org/forum/style_images/flags/Switzerland.png)
*Format: mp3@CBR320kbps
*Size: 60MB

Tracklist:
01. 1.2.3.4.5.6.7.8 05:10
02. We Only Live Once 03:18
03. Ripped Off 03:20
04. My Misery 04:03
05. Death of the Sea 04:42
06. You Can't Stop Me 05:47
******************************
Total playing time: 26:20



Extended info
Graziano Zucchetti - Drums
Michele Sedili - Bass
Paolo Di Stefano - Guitar
Mustapha Ait Bennasser - Guitar
Zac Giannini - Vocals


Technical info
(IMG:https://metalarea.org/images/spectrogram/2019_Jan/d0b571751e5c3d785823df1eb8b06db2.png)
Input File: 04 - My Misery.mp3
Channels : 2
Sample Rate : 44100
Precision : 16-bit
Duration : 00:04:03.00 = 10716300 samples = 18225 CDDA sectors
File Size : 9.72M
Bit Rate : 320k
Sample Encoding: MPEG audio (layer I, II or III)
Comments :
Title=My Misery
Artist=Redraw
Album=Pangea
Tracknumber=4
Year=2019
Genre=Thrash Metal



Register


Go to the top of the page
  Insert nick Quick quote
+Quote Post

Reply to this topicStart new topic
1 User(s) are reading this topic (1 Guests and 0 Anonymous Users)
0 Members:

 



- Lo-Fi Version Support form
Copyrights and abuse reports form
Time is now: 18th June 2019 - 07:55:34