Welcome Guest ( Log In | Register )

> Releases Upload / Добавление релизов

Добавить релиз тут / Click here to add release
Рекомендованные обменники / Recommended file shares

 
Reply to this topicStart new topic
> Various Artists - Warriors Of The Morbid Moon Vol. 2 [compilation] (2003), Death Metal
post Jan 12 2019, 09:20:34
Post #1


Group Icon
Group: S-moderation team
Posts: 8,236
Releases: 1418
On Forums: 7 years 10 months
Thanks: 40243 time(s)
Croatia


(IMG:http://metalarea.org/images/audiocovers/2019_Jan/acov_tid315771_thumb.jpg)

*Artist: Various Artists
*Album: Warriors Of The Morbid Moon Vol. 2 [compilation]
*Year: 2003
*Genre: Death Metal
*Country: Brazil (IMG:http://metalarea.org/forum/style_images/flags/Brazil.png)
*Format: mp3@CBR192kbps
*Size: 61MB

Tracklist:
01. Aborticide - Aborticide 02:52
02. Anal Putrefaction - Living in Peace 04:51
03. Angel's Decay - Creation from heaven 02:48
04. Ânsia de Vômito - Utopian Happiness 02:58
05. Anthropophagical Warfare - Leprosary 03:00
06. Clamus - Leaveusalone 03:52
07. Clawn - My Word Against Your Lies 03:22
08. Craniotomy - Hate, Pain... Death (Your End) 03:12
09. Critical Death - Critical Death 05:05
10. Horghet - In Flames 05:13
11. Slaughter Thou - 100mm: Hollow Charge 03:48
12. Somberlain - Awakening in the Darkness 03:47
******************************
Total playing time: 44:48

Extended info
Moondo Records.
Order from Depressive Illusions Records.


Technical info
(IMG:http://metalarea.org/images/spectrogram/2019_Jan/7d1fb4ed0a770b3c5947b0a1318244b5.png)
Input File: 01-aborticide-aborticide-gw.mp3
Channels : 2
Sample Rate : 44100
Precision : 16-bit
Duration : 00:02:52.49 = 7606589 samples = 12936.4 CDDA sectors
File Size : 4.14M
Bit Rate : 192k
Sample Encoding: MPEG audio (layer I, II or III)
Comments :
Title=Aborticide
Artist=Aborticide
Album=Warriors of the Morbid Moon Vo
Year=2003
Genre=9



Register


Go to the top of the page
  Insert nick Quick quote
+Quote Post

Reply to this topicStart new topic
1 User(s) are reading this topic (1 Guests and 0 Anonymous Users)
0 Members:

 



- Lo-Fi Version Support form
Copyrights and abuse reports form
Time is now: 20th January 2019 - 01:37:47