Welcome Guest ( Log In | Register )

> Shades Before Dawn - Mnemonic (2019), Modern Progressive Metal
post Jan 12 2019, 10:21:40
Post #1

Аннигилятор пивА
Group Icon
Group: V.I.P
Posts: 52,356
Releases: 16556
From: Koenigsberg - TILZIT
On Forums: 13 years 2 weeks
Thanks: 361075 time(s)
Russian Federation


(IMG:https://metalarea.org/images/audiocovers/2019_Jan/acov_tid315773_thumb.jpg)

*Artist: Shades Before Dawn
*Album: Mnemonic
*Year: 2019
*Genre: Modern Progressive Metal
*Country: United States (IMG:https://metalarea.org/forum/style_images/flags/United%20States.png)
*Format: mp3@CBR320kbps
*Size: 79MB

Tracklist:
01. We Rise
02. We Fall
03. Prestige
04. Temp
05. Mnemonic
06. Episode II (Pathetic Liar)
07. Years To Come
08. New Beginnings
******************************
Total playing time: 36:56




Extended info


Technical info
(IMG:https://metalarea.org/images/spectrogram/2019_Jan/ce4bcf0dd1321501d3b7b7f4d8c10040.png)
Input File: 02. We Fall.mp3
Channels : 2
Sample Rate : 44100
Precision : 16-bit
Duration : 00:03:54.75 = 10352563 samples = 17606.4 CDDA sectors
File Size : 9.44M
Bit Rate : 322k
Sample Encoding: MPEG audio (layer I, II or III)
Comments :
Title=We Fall
Artist=SHADES BEFORE DAWN
Album=Mnemonic
Tracknumber=2
Year=2019
Discnumber=1



Register


Go to the top of the page
  Insert nick Quick quote
+Quote Post
 
Start new topic
Replies (1 - 1)
post Jan 27 2019, 06:19:31
Post #2

Четыре Литра
****
Group: Металариец
Posts: 333
Releases: 0
From: Сибирь
On Forums: 8 years 3 months
Thanks: 99 time(s)
Russian Federation


Instrumental
Go to the top of the page
  Insert nick Quick quote
+Quote Post

Reply to this topicStart new topic
1 User(s) are reading this topic (1 Guests and 0 Anonymous Users)
0 Members:

 



- Lo-Fi Version Support form
Copyrights and abuse reports form
Time is now: 18th June 2019 - 16:03:21