Welcome Guest ( Log In | Register )

> Various Artists - Compilado Nahuel Vol. IV [compilation] (2004), Death/Thrash/Black Metal
post Jan 12 2019, 10:31:33
Post #1


Group Icon
Group: S-moderation team
Posts: 10,813
Releases: 1438
From: Zagreb
On Forums: 8 years 3 months
Thanks: 46653 time(s)
Croatia


(IMG:http://metalarea.org/images/audiocovers/2019_Jan/acov_tid315774_thumb.jpg)

*Artist: Various Artists
*Album: Compilado Nahuel Vol. IV [compilation]
*Year: 2004
*Genre: Death/Thrash/Black Metal
*Country: Many (IMG:http://metalarea.org/forum/style_images/flags/Many.png)
*Format: mp3@VBR238kbps
*Size: 127MB

Tracklist:
01. Old Man's Child - Felonies of the Christian Art 03:10
02. Liturgia - Specular Reflects 05:38
03. Liturgia - Crows and Swaws 06:25
04. Malicia - Cruel 05:31
05. Malicia - Cadenas De Encubrimiento 03:58
06. Mastifal - In the Entrails of the Apocalypse 04:41
07. Mastifal - Nuevo Mundo Artificial 04:14
08. Krueger - Shittin' with the Devil 03:09
09. Krueger - A Morbid Tale of Children 03:24
10. Krueger - Anal God 04:06
11. Slow Death - Dead But... Still Feeling the Pain 03:27
12. Slow Death - Final Feast 02:50
13. Funeral - I the Supreme 06:27
14. Funeral - Mad House 04:47
15. Morbus - Almas En El Infierno 05:37
16. Morbus - Eructos Anales 02:31
17. Dimmu Borgir - Blessings Upon the Throne of Tyranny 05:18
18. Death - Bite the Pain 04:22
******************************
Total playing time: 1:19:35

Extended info
Scene CD rip.


Technical info
(IMG:http://metalarea.org/images/spectrogram/2019_Jan/470ab8c4d8820704c1d20224fb8127ff.png)
Input File: 01-old_mans_child-felonies_of_the_christian_art-gw.mp3
Channels : 2
Sample Rate : 44100
Precision : 16-bit
Duration : 00:03:10.35 = 8394611 samples = 14276.5 CDDA sectors
File Size : 5.79M
Bit Rate : 243k
Sample Encoding: MPEG audio (layer I, II or III)
Comments :
Title=Felonies Of The Christian Art
Artist=Old Man's Child
Album=Compilado Nahuel Vol. IV
Year=2004
Genre=9



Register


Go to the top of the page
  Insert nick Quick quote
+Quote Post
 
Start new topic
Replies (1 - 3)
post Jan 12 2019, 10:44:52
Post #2
BAN
Banned till
Jul 3 2019, 09:26:58



ЦИТАТА(Borderline1991 @ Jan 12 2019, 12:31:33) *
Compilado Nahuel

Было бы Compilado Оhuel - я бы ещё послушал. А так и по названию понятно, что не надо оно)
Go to the top of the page
  Insert nick Quick quote
+Quote Post
post Jan 12 2019, 10:49:10
Post #3


Group Icon
Group: S-moderation team
Posts: 10,813
Releases: 1438
From: Zagreb
On Forums: 8 years 3 months
Thanks: 46653 time(s)
Croatia


QUOTE(Фо @ Jan 12 2019, 10:44:52) *
Было бы Compilado Оhuel - я бы ещё послушал. А так и по названию понятно, что не надо оно)
There's Dimmu Borgir on it, and Old Man's Child. (IMG:style_emoticons/default/22.gif) It's not necessary to listen. (IMG:style_emoticons/default/1488.gif)
Go to the top of the page
  Insert nick Quick quote
+Quote Post
post Jan 12 2019, 11:24:14
Post #4
BAN
Banned till
Jul 3 2019, 09:26:58



ЦИТАТА(Borderline1991 @ Jan 12 2019, 12:49:10) *
There's Dimmu Borgir on it, and Old Man's Child. (IMG:style_emoticons/default/22.gif) It's not necessary to listen. (IMG:style_emoticons/default/1488.gif)

here the play on words: “Nahuel” is consonant with "наxуя" ("unnecessary”), and “Оahuel” is consonant with "оxуенно" (“cool”) in obscene slang.


Thanks:
Go to the top of the page
  Insert nick Quick quote
+Quote Post

Reply to this topicStart new topic
1 User(s) are reading this topic (1 Guests and 0 Anonymous Users)
0 Members:

 



- Lo-Fi Version Support form
Copyrights and abuse reports form
Time is now: 18th June 2019 - 07:38:12