Welcome Guest ( Log In | Register )

 
Reply to this topicStart new topic
> Laveya - Fortvilelse (2019), Atmospheric Doom/Post-Metal/Ambient
post Jan 12 2019, 10:52:00
Post #1

Аннигилятор пивА
Group Icon
Group: V.I.P
Posts: 52,356
Releases: 16556
From: Koenigsberg - TILZIT
On Forums: 13 years 2 weeks
Thanks: 361073 time(s)
Russian Federation


(IMG:https://metalarea.org/images/audiocovers/2019_Jan/acov_tid315777_thumb.jpg)

*Artist: Laveya
*Album: Fortvilelse
*Year: 2019
*Genre: Atmospheric Doom/Post-Metal/Ambient
*Country: Denmark (IMG:https://metalarea.org/forum/style_images/flags/Denmark.png)
*Format: mp3@CBR320kbps
*Size: 85MB

Tracklist:
01. Den Rolige Før Stormen: I
02. Å Avsløre Den Stygge Sannheten: II
03. Hyllest Til de Glemte Sjeler: III
04. Et Felt Av Evig Melankoli: IV
05. Forstyrre de Begravede Avgudene: V
06. En Periode Med Fred Og Velstand: VI
07. Den Rolige Etter Stormen: VII
******************************
Total playing time: 35:44

Preview 1

Extended info



Technical info
(IMG:https://metalarea.org/images/spectrogram/2019_Jan/aa2f90ab6856e32daa1d11483fb9c9da.png)
Input File: 05 Forstyrre de Begravede Avgudene V.mp3
Channels : 2
Sample Rate : 44100
Precision : 16-bit
Duration : 00:04:26.10 = 11734878 samples = 19957.3 CDDA sectors
File Size : 11.1M
Bit Rate : 333k
Sample Encoding: MPEG audio (layer I, II or III)
Comments :
Title=Forstyrre de Begravede Avgudene: V
Artist=Laveya
Album=Fortvilelse
Tracknumber=5/7
Year=2019
Genre=Atmospheric Metal
Discnumber=1/1



Register


Go to the top of the page
  Insert nick Quick quote
+Quote Post

Reply to this topicStart new topic
1 User(s) are reading this topic (1 Guests and 0 Anonymous Users)
0 Members:

 



- Lo-Fi Version Support form
Copyrights and abuse reports form
Time is now: 18th June 2019 - 08:20:05