Welcome Guest ( Log In | Register )

> И неформату есть предел.

Рэп/хип-хоп/шансон/поп удаляются. Для них есть свои порталы.

 
Reply to this topicStart new topic
> Sanctuaire - Echo 2 - Les Esprits Sont Étoiles Aux Cimes De La Victoire (2016), Ambient (D6)
post Jan 12 2019, 11:29:57
Post #1


Group Icon
Group: S-moderation team
Posts: 10,532
Releases: 1435
From: Zagreb
On Forums: 8 years 2 months
Thanks: 45299 time(s)
Croatia


(IMG:http://metalarea.org/images/audiocovers/2019_Jan/acov_tid315779_thumb.jpg)

*Artist: Sanctuaire
*Album: Echo 2 - Les Esprits Sont Étoiles Aux Cimes De La Victoire
*Year: 2016
*Genre: Ambient
*Country: Canada (IMG:http://metalarea.org/forum/style_images/flags/Canada.png)
*Format: mp3@CBR320kbps
*Size: 80MB

Tracklist:
1. Jamais d'aurore 02:27
2. Les esprits sont étoiles, aux cimes de la victoire 04:47
3. L'oeil dans le puit 02:25
4. Forge 06:05
5. Elle est venue et l'a emporté 05:11
6. Impression d'automne 05:04
7. Visualisation du triomphe 05:19
8. Faire cavalier seul 03:29
******************************
Total playing time: 34:47



Technical info
(IMG:http://metalarea.org/images/spectrogram/2019_Jan/cba107fcc6454bc13c74510868545d1a.png)
Input File: 01 - Jamais d\'aurore.mp3
Channels : 2
Sample Rate : 48000
Precision : 16-bit
Duration : 00:02:27.17 = 7064064 samples ~ 11037.6 CDDA sectors
File Size : 5.89M
Bit Rate : 320k
Sample Encoding: MPEG audio (layer I, II or III)
Comments :
Title=Jamais d'aurore
Artist=Sanctuaire
Album=Les esprits sont étoiles aux cimes de la victoire
Tracknumber=1
Year=2016
Genre=Ambient



Register


Go to the top of the page
  Insert nick Quick quote
+Quote Post

Reply to this topicStart new topic
2 User(s) are reading this topic (2 Guests and 0 Anonymous Users)
0 Members:

 



- Lo-Fi Version Support form
Copyrights and abuse reports form
Time is now: 22nd May 2019 - 11:47:38