Welcome Guest ( Log In | Register )

> Releases Upload / Добавление релизов

Добавить релиз тут / Click here to add release
Рекомендованные обменники / Recommended file shares

 
Reply to this topicStart new topic
> Various Artists - Vas És Vér [compilation] (2012), Gothic/Death/Doom/Folk Metal
post Jan 12 2019, 11:51:20
Post #1


Group Icon
Group: S-moderation team
Posts: 8,236
Releases: 1418
On Forums: 7 years 10 months
Thanks: 40243 time(s)
Croatia


(IMG:http://metalarea.org/images/audiocovers/2019_Jan/acov_tid315781_thumb.jpg)

*Artist: Various Artists
*Album: Vas És Vér [compilation]
*Year: 2012
*Genre: Gothic/Death/Doom/Folk Metal
*Country: Hungary (IMG:http://metalarea.org/forum/style_images/flags/Hungary.png)
*Format: mp3@VBR260kbps
*Size: 134MB

Tracklist:
01 Mabthera - Hidegen fújnak a szelek a csitári hegyek alatt 06:30
02 Niburta - Nap és Hold (Napot is szeretem) 05:00
03 Evil's Tears - Valahol tőled távol 04:46
04 Isatha - Vándor (Csillagok, csillagok) 04:16
05 Legenda - Fel fel vitézek 04:18
06 Anakron - Hulljatok levelek 06:21
07 Kyron - Látom a szép eget 04:31
08 Kerecsensólyom - Népdalok 06:23
09 Baskíria - Erdély induló 02:24
10 Rege & Maniac - Nem úgy van most... 03:02
11 Adversor - Elindultam szép hazámból 05:00
12 De Profundis - Indulj el egy úton 04:56
13 Witcher - Katona vagyok én 05:49
14 Funebre - Drága élet semmivé lett 05:52
******************************
Total playing time: 1:09:08

Preview 1

Extended info
Hungarian folk songs and martial songs in extreme, metal style from 14 bands of the Hungarian underground metal scene.


Technical info
(IMG:http://metalarea.org/images/spectrogram/2019_Jan/79927698d4463a2086deab022fd409b9.png)
Input File: 01-mabthera-hidegen_fujnak_a_szelek_a_csitari_hegyek_alatt.mp3
Channels : 2
Sample Rate : 44100
Precision : 16-bit
Duration : 00:06:30.93 = 17240145 samples = 29320 CDDA sectors
File Size : 13.4M
Bit Rate : 274k
Sample Encoding: MPEG audio (layer I, II or III)
Comments :
Title=Hidegen fújnak a szelek a csitári hegyek alatt
Artist=Mabthera
Album=Vas és vér
Tracknumber=1/14
Year=2012-00-00
Genre=Metal



Register


Go to the top of the page
  Insert nick Quick quote
+Quote Post

Reply to this topicStart new topic
1 User(s) are reading this topic (1 Guests and 0 Anonymous Users)
0 Members:

 



- Lo-Fi Version Support form
Copyrights and abuse reports form
Time is now: 20th January 2019 - 01:58:41