Welcome Guest ( Log In | Register )

> Releases Upload / Добавление релизов

Добавить релиз тут / Click here to add release
Рекомендованные обменники / Recommended file shares

> Morbid Messiah - Demoniac Paroxysm (2018), Old School Death Metal
post Jan 12 2019, 11:52:49
Post #1

Аннигилятор пивА
Group Icon
Group: V.I.P
Posts: 51,494
Releases: 16175
From: Koenigsberg - TILZIT
On Forums: 12 years 7 months
Thanks: 351774 time(s)
Russian Federation


(IMG:https://metalarea.org/images/audiocovers/2019_Jan/acov_tid315782_thumb.jpg)

*Artist: Morbid Messiah
*Album: Demoniac Paroxysm
*Year: 2018
*Genre: Old School Death Metal
*Country: Mexico (IMG:https://metalarea.org/forum/style_images/flags/Mexico.png)
*Format: mp3@CBR320kbps
*Size: 83MB

Tracklist:
1. Rise of the Rottenness 02:39
2. Charred Devastation 03:08
3. Graveyard Headhunter 03:25
4. Devoured by Darkness 03:45
5. Breath of the Ominous 04:26
6. Crawling in Guts 03:34
7. Fetid Bloodbath 02:41
8. Howling from the Grave 04:26
9. Morbid Messiah/Morbid Invocation 07:31
******************************
Total playing time: 35:35




Extended info
Anubis Sandoval Drums
Roberto Trejo Guitars
José Rivas Vocals
G-Phager Bass


Technical info
(IMG:https://metalarea.org/images/spectrogram/2019_Jan/9603a34ad4276806e1ae024fd049314e.png)
Input File: 02. Charred Devastation.mp3
Channels : 2
Sample Rate : 44100
Precision : 16-bit
Duration : 00:03:08.10 = 8294990 samples = 14107.1 CDDA sectors
File Size : 7.53M
Bit Rate : 320k
Sample Encoding: MPEG audio (layer I, II or III)
Comments :
Title=harred Devastation
Artist=Morbid Messiah
Album=Demoniac Paroxysm
Tracknumber=2
Year=2018



Register


Go to the top of the page
  Insert nick Quick quote
+Quote Post
 
Start new topic
Replies (1 - 1)
post Jan 12 2019, 16:52:38
Post #2

Аннигилятор пивА
Group Icon
Group: V.I.P
Posts: 51,494
Releases: 16175
From: Koenigsberg - TILZIT
On Forums: 12 years 7 months
Thanks: 351774 time(s)
Russian Federation


mirror
Register




Thanks:
Go to the top of the page
  Insert nick Quick quote
+Quote Post

Reply to this topicStart new topic
2 User(s) are reading this topic (2 Guests and 0 Anonymous Users)
0 Members:

 



- Lo-Fi Version Support form
Copyrights and abuse reports form
Time is now: 20th January 2019 - 02:05:34