Welcome Guest ( Log In | Register )

> Releases Upload / Добавление релизов

Добавить релиз тут / Click here to add release
Рекомендованные обменники / Recommended file shares

 
Reply to this topicStart new topic
> Gosudar - Demo 18 [demo] (2018), Death Metal
post Jan 12 2019, 12:03:14
Post #1

Все гадости обо мне - правда.
**************
Group: Металариец
Posts: 2,263
Releases: 161
On Forums: 8 years 5 months
Thanks: 3549 time(s)
Unknown


(IMG:https://metalarea.org/images/audiocovers/2019_Jan/acov_tid315783_thumb.jpg)

*Artist: Gosudar
*Album: Demo 18 [demo]
*Year: 2018
*Genre: Death Metal
*Country: Russian Federation (IMG:https://metalarea.org/forum/style_images/flags/Russian%20Federation.png)
*Format: mp3@VBR257kbps
*Size: 22MB

Tracklist:
1. King Of Pain
2. Anathema
******************************
Total playing time: 9:08



Extended info
Жирно, мрачно, тянет жилы.


Technical info
(IMG:https://metalarea.org/images/spectrogram/2019_Jan/3c17298dba8c7f24c1f86cf00c0a0cc4.png)
Input File: 01. King of Pain.mp3
Channels : 2
Sample Rate : 44100
Precision : 16-bit
Duration : 00:04:39.07 = 12306811 samples = 20930 CDDA sectors
File Size : 9.16M
Bit Rate : 263k
Sample Encoding: MPEG audio (layer I, II or III)
Comments :
Title=King of Pain
Artist=Gosudar
Album=Demo '18
Tracknumber=1
Year=2018
Genre=газбаллон пихают в жопу



Register


Go to the top of the page
  Insert nick Quick quote
+Quote Post

Reply to this topicStart new topic
2 User(s) are reading this topic (2 Guests and 0 Anonymous Users)
0 Members:

 



- Lo-Fi Version Support form
Copyrights and abuse reports form
Time is now: 20th January 2019 - 01:23:15