Welcome Guest ( Log In | Register )

> My Darkest Time - Dawn (2018), Gothic/Doom/Death Metal (D5)
post Jan 12 2019, 12:07:07
Post #1

Аннигилятор пивА
Group Icon
Group: V.I.P
Posts: 52,356
Releases: 16556
From: Koenigsberg - TILZIT
On Forums: 13 years 4 weeks
Thanks: 361189 time(s)
Russian Federation


(IMG:https://metalarea.org/images/audiocovers/2019_Jan/acov_tid315784_thumb.jpg)

*Artist: My Darkest Time
*Album: Dawn
*Year: 2018
*Genre: Gothic/Doom/Death Metal
*Country: Macedonia (IMG:https://metalarea.org/forum/style_images/flags/Macedonia.png)
*Format: mp3@CBR320kbps
*Size: 101MB

Tracklist:
1. Two Angels 05:56
2. Mad 04:55
3. Don't Leave... 04:26
4. Dawn 04:38
5. Take Us Away 07:30
6. Open, O Doors 04:44
7. Embodiments of Dreams 06:11
8. Lord Have Mercy 05:32
******************************
Total playing time: 43:52




Extended info
Zarko Atanasov All instruments, Vocals (growls) (2005-present)
See also: Wipe Away, Smirenie, True Wisdom
Marina Atanasova Vocals (female) (2011-present)
See also: Wipe Away, Smirenie
Zoc Zoran Petrovski Guitars (lead) (2017-present)
See also: ex-Savaot
Martin Atanasov Vocals (2017-present)


Technical info
(IMG:https://metalarea.org/images/spectrogram/2019_Jan/55d4fc14c90e39395727a7e577727445.png)
Input File: 02 - Mad.mp3
Channels : 2
Sample Rate : 44100
Precision : 16-bit
Duration : 00:04:55.59 = 13035563 samples = 22169.3 CDDA sectors
File Size : 11.9M
Bit Rate : 323k
Sample Encoding: MPEG audio (layer I, II or III)
Comments :
Title=Mad
Artist=My Darkest Time
Album=Dawn
Tracknumber=2
Year=2018



Register


Go to the top of the page
  Insert nick Quick quote
+Quote Post
 
Start new topic
Replies (1 - 3)
post Jan 12 2019, 16:33:34
Post #2

赑屃
***
Group: Завсегдатай
Posts: 240
Releases: 5
From: Луганск
On Forums: 2 years 2 months
Thanks: 118 time(s)
Russian Federation


Дум из ттх вышвырнуть к чертям собачьим.. В остатке имеем неудержимо галопирующий готик-метал с отвратительными вокалами обоих полов и псевдо-фолковыми фишками..
Go to the top of the page
  Insert nick Quick quote
+Quote Post
post Jan 14 2019, 17:55:18
Post #3

Правь статус, ####!111
**************
Group: Металариец
Posts: 2,462
Releases: 2
From: Dnipro
On Forums: 10 years 11 months
Thanks: 643 time(s)
Ukraine


Я уж подумал что будет что то в духе ранней Тристании + Дракониан, а тут (IMG:style_emoticons/default/22.gif)
Go to the top of the page
  Insert nick Quick quote
+Quote Post
post Mar 26 2019, 16:15:28
Post #4

Group: Дух
Posts: 3
Releases: 0
On Forums: 4 months 3 days
Thanks: 0 time(s)
Macedonia


QUOTE(bc_ @ Jan 12 2019, 16:33:34) *
Дум из ттх вышвырнуть к чертям собачьим.. В остатке имеем неудержимо галопирующий готик-метал с отвратительными вокалами обоих полов и псевдо-фолковыми фишками..


готик-метал???
Go to the top of the page
  Insert nick Quick quote
+Quote Post

Reply to this topicStart new topic
2 User(s) are reading this topic (2 Guests and 0 Anonymous Users)
0 Members:

 



- Lo-Fi Version Support form
Copyrights and abuse reports form
Time is now: 27th June 2019 - 05:20:33