Welcome Guest ( Log In | Register )

> Gutter Tactic - Gutter Tactic (2013), Death/Thrash Metal
post Jan 12 2019, 12:39:55
Post #1

Аннигилятор пивА
Group Icon
Group: V.I.P
Posts: 52,356
Releases: 16556
From: Koenigsberg - TILZIT
On Forums: 12 years 11 months
Thanks: 360777 time(s)
Russian Federation


(IMG:https://metalarea.org/images/audiocovers/2019_Jan/acov_tid315785_thumb.jpg)

*Artist: Gutter Tactic
*Album: Gutter Tactic
*Year: 2013
*Genre: Death/Thrash Metal
*Country: Australia (IMG:https://metalarea.org/forum/style_images/flags/Australia.png)
*Format: mp3@CBR320kbps
*Size: 81MB

Tracklist:
1. Regret 06:38
2. Roulette 03:47
3. Thrones 06:12
4. Tortured 05:02
5. Nevermind 03:41
6. Fallen 04:55
7. Eden 05:01
******************************
Total playing time: 35:16




Extended info
FLAC-RIP
Nic Webb - Vocals,
John Reed - Bass,
Nick Moller - Guitars,
Roan Critchley - Guitars,
Zac Adami-Mcdonald - Drums


Technical info
(IMG:https://metalarea.org/images/spectrogram/2019_Jan/dab4a6803f5c108be80b39685ab34a5a.png)
Input File: Gutter Tactic - Gutter Tactic - 03 Thrones.mp3
Channels : 2
Sample Rate : 44100
Precision : 16-bit
Duration : 00:06:12.34 = 16420326 samples = 27925.7 CDDA sectors
File Size : 15.0M
Bit Rate : 323k
Sample Encoding: MPEG audio (layer I, II or III)
Comments :
Title=Thrones
Artist=Gutter Tactic
Album=Gutter Tactic
Tracknumber=3
Year=2013



Register


Go to the top of the page
  Insert nick Quick quote
+Quote Post
 
Start new topic
Replies (1 - 1)
post Jan 12 2019, 16:58:28
Post #2

Аннигилятор пивА
Group Icon
Group: V.I.P
Posts: 52,356
Releases: 16556
From: Koenigsberg - TILZIT
On Forums: 12 years 11 months
Thanks: 360777 time(s)
Russian Federation


mirror
Register



Thanks:
Go to the top of the page
  Insert nick Quick quote
+Quote Post

Reply to this topicStart new topic
2 User(s) are reading this topic (2 Guests and 0 Anonymous Users)
0 Members:

 



- Lo-Fi Version Support form
Copyrights and abuse reports form
Time is now: 26th May 2019 - 12:04:44