Welcome Guest ( Log In | Register )

> Releases Upload / Добавление релизов

Добавить релиз тут / Click here to add release
Рекомендованные обменники / Recommended file shares

 
Reply to this topicStart new topic
> Naamah - Lost Forever.​.​. (2018), Depressive Black Metal (D4)
post Jan 12 2019, 12:56:20
Post #1

Правь статус, ####!111
**************
Group: Металариец
Posts: 15,698
Releases: 10662
From: Г.Харьков
On Forums: 6 years 8 months
Thanks: 177417 time(s)
Unknown


(IMG:https://metalarea.org/images/audiocovers/2019_Jan/acov_tid315786_thumb.jpg)

*Artist: Naamah
*Album: Lost Forever.​.​.
*Year: 2018
*Genre: Depressive Black Metal
*Country: Romania (IMG:https://metalarea.org/forum/style_images/flags/Romania.png)
*Format: mp3@CBR320kbps
*Size: 64MB

Tracklist:
1. Intro 01:44
2. Inside Thoughts 05:19
3. Drowned in My Own Blood 06:49
4. ... 02:40
5. Flesh 05:32
6. Lost Forever.​.​. 03:19
7. Outro 02:14
******************************
Total playing time: 27:37




Extended info
Goat Ravisher Everything
See also: Marax


Technical info
(IMG:https://metalarea.org/images/spectrogram/2019_Jan/b721cb90576391c5e04b972711ecfa37.png)
Input File: 02 - Inside Thoughts.mp3
Channels : 2
Sample Rate : 44100
Precision : 16-bit
Duration : 00:05:19.10 = 14072442 samples = 23932.7 CDDA sectors
File Size : 12.9M
Bit Rate : 324k
Sample Encoding: MPEG audio (layer I, II or III)
Comments :
Title=Inside Thoughts
Artist=Naamah
Album=Lost Forever...
Tracknumber=2
Year=2018



Register


Go to the top of the page
  Insert nick Quick quote
+Quote Post

Reply to this topicStart new topic
1 User(s) are reading this topic (1 Guests and 0 Anonymous Users)
0 Members:

 



- Lo-Fi Version Support form
Copyrights and abuse reports form
Time is now: 20th January 2019 - 01:30:49