Welcome Guest ( Log In | Register )

 
Reply to this topicStart new topic
> Torturepig - Piss Bucket Blues [ep] (2019), Goregrind (D5)
post Jan 12 2019, 13:30:14
Post #1

Serial Uploader
Group Icon
Group: V.I.P
Posts: 35,420
Releases: 33626
From: Lithuania
On Forums: 11 years 1 week
Thanks: 386071 time(s)
Lithuania


(IMG:https://metalarea.org/images/audiocovers/2019_Jan/acov_tid315787_thumb.jpg)

*Artist: Torturepig
*Album: Piss Bucket Blues [ep]
*Year: 2019
*Genre: Goregrind
*Country: United States (IMG:https://metalarea.org/forum/style_images/flags/United%20States.png)
*Format: mp3@CBR320kbps
*Size: 7MB

Tracklist:
01. Vasectomy 00:53
02. Clintosphere 01:23
03. Fuck Heroin/Just Inject PBR Into My Veins 00:19
04. Big Foot's Big Cock 00:18
******************************
Total playing time: 2:53



Technical info
(IMG:https://metalarea.org/images/spectrogram/2019_Jan/d6a1c5adec5db9d3c1937a1ffb7b340a.png)
Input File: 02. CLINTOSPHERE.mp3
Channels : 2
Sample Rate : 44100
Precision : 16-bit
Duration : 00:01:23.78 = 3694654 samples = 6283.43 CDDA sectors
File Size : 3.46M
Bit Rate : 331k
Sample Encoding: MPEG audio (layer I, II or III)
Comments :
Title=CLINTOSPHERE
Artist=TORTUREPIG
Album=PISS BUCKET BLUES
Tracknumber=2
Year=2019



Register


Go to the top of the page
  Insert nick Quick quote
+Quote Post

Reply to this topicStart new topic
1 User(s) are reading this topic (1 Guests and 0 Anonymous Users)
0 Members:

 



- Lo-Fi Version Support form
Copyrights and abuse reports form
Time is now: 18th June 2019 - 16:41:14