Welcome Guest ( Log In | Register )

> Releases Upload / Добавление релизов

Добавить релиз тут / Click here to add release
Рекомендованные обменники / Recommended file shares

 
Reply to this topicStart new topic
> Larissa Dnirgerog - Hentai Anthem [ep] (2019), Goregrind
post Jan 12 2019, 13:47:56
Post #1

Serial Uploader
Group Icon
Group: V.I.P
Posts: 33,581
Releases: 31840
From: Lithuania
On Forums: 10 years 7 months
Thanks: 363488 time(s)
Lithuania


(IMG:https://metalarea.org/images/audiocovers/2019_Jan/acov_tid315789_thumb.jpg)

*Artist: Larissa Dnirgerog
*Album: Hentai Anthem [ep]
*Year: 2019
*Genre: Goregrind
*Country: Japan (IMG:https://metalarea.org/forum/style_images/flags/Japan.png)
*Format: mp3@CBR320kbps
*Size: 13MB

Tracklist:
01. Genital Miyako Grind 01:32
02. Never See You Again! 00:19
03. Fake Chest 01:17
04. Last Of Hentai 02:16
******************************
Total playing time: 5:24



Technical info
(IMG:https://metalarea.org/images/spectrogram/2019_Jan/958d1b05b23dd3d106cb6bcb496dc562.png)
Input File: 02. Never See You Again!.mp3
Channels : 2
Sample Rate : 44100
Precision : 16-bit
Duration : 00:00:19.10 = 842134 samples = 1432.2 CDDA sectors
File Size : 901k
Bit Rate : 377k
Sample Encoding: MPEG audio (layer I, II or III)
Comments :
Title=Never See You Again!
Artist=Larissa dnirgerog
Album=Hentai Anthem
Tracknumber=2
Year=2019



Register


Go to the top of the page
  Insert nick Quick quote
+Quote Post

Reply to this topicStart new topic
1 User(s) are reading this topic (1 Guests and 0 Anonymous Users)
0 Members:

 



- Lo-Fi Version Support form
Copyrights and abuse reports form
Time is now: 20th January 2019 - 02:45:35