Welcome Guest ( Log In | Register )

 
Reply to this topicStart new topic
> Nasty Cunt Slime - Juice And Slime [ep] (2018), Porno Goregrind
post Jan 12 2019, 14:01:34
Post #1

Serial Uploader
Group Icon
Group: V.I.P
Posts: 35,215
Releases: 33430
From: Lithuania
On Forums: 10 years 11 months
Thanks: 383329 time(s)
Lithuania


(IMG:https://metalarea.org/images/audiocovers/2019_Jan/acov_tid315790_thumb.jpg)

*Artist: Nasty Cunt Slime
*Album: Juice And Slime [ep]
*Year: 2018
*Genre: Porno Goregrind
*Country: United States (IMG:https://metalarea.org/forum/style_images/flags/United%20States.png)
*Format: mp3@CBR320kbps
*Size: 17MB

Tracklist:
01. Newport Smoker (Intro) 00:52
02. Cummy Tummy 02:46
03. Mayo Lips 01:16
04. Bust A Nut In Your Butt 02:34
******************************
Total playing time: 7:28




Technical info
(IMG:https://metalarea.org/images/spectrogram/2019_Jan/cc7360e40ed149127789c8283cf7fe1f.png)
Input File: 02. cummy tummy.mp3
Channels : 2
Sample Rate : 44100
Precision : 16-bit
Duration : 00:02:46.96 = 7362804 samples = 12521.8 CDDA sectors
File Size : 6.77M
Bit Rate : 324k
Sample Encoding: MPEG audio (layer I, II or III)
Comments :
Title=cummy tummy
Artist=NASTY CUNT SLIME
Album=juice and slime
Tracknumber=2
Year=2018



Register


Thanks:
Go to the top of the page
  Insert nick Quick quote
+Quote Post

Reply to this topicStart new topic
2 User(s) are reading this topic (2 Guests and 0 Anonymous Users)
0 Members:

 



- Lo-Fi Version Support form
Copyrights and abuse reports form
Time is now: 26th May 2019 - 12:46:11