Welcome Guest ( Log In | Register )

 
Reply to this topicStart new topic
> Nasty Cunt Slime - 6 Holiday Traxxx [demo] (2018), Porno Goregrind
post Jan 12 2019, 14:09:02
Post #1

Serial Uploader
Group Icon
Group: V.I.P
Posts: 34,298
Releases: 32531
From: Lithuania
On Forums: 10 years 9 months
Thanks: 371194 time(s)
Lithuania


(IMG:https://metalarea.org/images/audiocovers/2019_Jan/acov_tid315791_thumb.jpg)

*Artist: Nasty Cunt Slime
*Album: 6 Holiday Traxxx [demo]
*Year: 2018
*Genre: Porno Goregrind
*Country: United States (IMG:https://metalarea.org/forum/style_images/flags/United%20States.png)
*Format: mp3@CBR320kbps
*Size: 7MB

Tracklist:
01. 6 Holiday Traxxx 03:07
******************************
Total playing time: 3:07




Technical info
(IMG:https://metalarea.org/images/spectrogram/2019_Jan/baf4f0242111ae36b0231c65b1378c7d.png)
Input File: 01. 6 HOLIDAY TRAXXX.mp3
Channels : 2
Sample Rate : 44100
Precision : 16-bit
Duration : 00:03:07.28 = 8259136 samples = 14046.1 CDDA sectors
File Size : 7.65M
Bit Rate : 327k
Sample Encoding: MPEG audio (layer I, II or III)
Comments :
Title=6 HOLIDAY TRAXXX
Artist=NASTY CUNT SLIME
Tracknumber=1
Year=2018



Register


Thanks:
Go to the top of the page
  Insert nick Quick quote
+Quote Post

Reply to this topicStart new topic
1 User(s) are reading this topic (1 Guests and 0 Anonymous Users)
0 Members:

 



- Lo-Fi Version Support form
Copyrights and abuse reports form
Time is now: 20th March 2019 - 10:37:20