Welcome Guest ( Log In | Register )

> Releases Upload / Добавление релизов

Добавить релиз тут / Click here to add release
Рекомендованные обменники / Recommended file shares

 
Reply to this topicStart new topic
> Nasty Cunt Slime & Liquidate - Fucking Girls At Guantanamo Bay!!! [split] (2019), Porno Goregrind | Porno Goregrind
post Jan 12 2019, 14:27:11
Post #1

Serial Uploader
Group Icon
Group: V.I.P
Posts: 33,580
Releases: 31840
From: Lithuania
On Forums: 10 years 7 months
Thanks: 363488 time(s)
Lithuania


(IMG:https://metalarea.org/images/audiocovers/2019_Jan/acov_tid315793_thumb.jpg)

*Artist: Nasty Cunt Slime & Liquidate
*Album: Fucking Girls At Guantanamo Bay!!! [split]
*Year: 2019
*Genre: Porno Goregrind | Porno Goregrind
*Country: United States (IMG:https://metalarea.org/forum/style_images/flags/United%20States.png) | United States (IMG:https://metalarea.org/forum/style_images/flags/United%20States.png)
*Format: mp3@CBR320kbps
*Size: 25MB

Tracklist:
Nasty Cunt Slime:
01. Intro 01:25
02. Cum In Her Eyehole 00:58
03. Hymen Remover (With Terry Sxoxfxgx On Vox) 01:12
04. Lubing Her Tits With Frog Sperm 01:11
Liquidate:
05. Bloated Womb, Too Many Abortions (Fucking Slut) 02:41
06. Lay Down Face Up And Pretend To Be Dead For Me! 01:54
07. Spread Your Legs And Forever Be One With The Saw, Baby! 01:32
******************************
Total playing time: 10:53





Technical info
(IMG:https://metalarea.org/images/spectrogram/2019_Jan/2cc4567c2fdc0e34e6fa1c06713fd808.png)
Input File: 02. cum in her eyehole.mp3
Channels : 2
Sample Rate : 44100
Precision : 16-bit
Duration : 00:00:58.07 = 2561019 samples = 4355.47 CDDA sectors
File Size : 2.47M
Bit Rate : 340k
Sample Encoding: MPEG audio (layer I, II or III)
Comments :
Title=cum in her eyehole
Artist=NASTY CUNT SLIME
Album=Fucking Girls At Guantanamo Bay!!!
Tracknumber=2
Year=2019



Register


Go to the top of the page
  Insert nick Quick quote
+Quote Post

Reply to this topicStart new topic
2 User(s) are reading this topic (2 Guests and 0 Anonymous Users)
0 Members:

 



- Lo-Fi Version Support form
Copyrights and abuse reports form
Time is now: 20th January 2019 - 01:34:13