Welcome Guest ( Log In | Register )

> Urfaust & Black Anvil - Lo-Fi Lowlive: Live In The Netherlands [split] (2018), Black Metal | Black Metal
post Jan 14 2019, 19:13:01
Post #1

the faceless one
Group Icon
Group: S-moderation team
Posts: 9,538
Releases: 1973
On Forums: 13 years 10 months
Thanks: 121306 time(s)
Russian Federation


(IMG:http://metalarea.org/images/audiocovers/2019_Jan/acov_tid315918_thumb.jpg)

*Artist: Urfaust & Black Anvil
*Album: Lo-Fi Lowlive: Live In The Netherlands [split]
*Year: 2018
*Genre: Black Metal | Black Metal
*Country: Netherlands (IMG:http://metalarea.org/forum/style_images/flags/Netherlands.png) | United States (IMG:http://metalarea.org/forum/style_images/flags/United%20States.png)
*Format: mp3@VBR267kbps
*Size: 19MB

Tracklist:
Urfaust:
1. Vom Geist Der Schwere 05:16
Black Anvil:
2. Ten Talons Deep 04:09
******************************
Total playing time: 9:25

Extended info
Ván Records,
April 7th, 2018.


Technical info
(IMG:http://metalarea.org/images/spectrogram/2019_Jan/515c458909781214b5528a7ed91e3143.png)
Input File: 01 Vom Geist Der Schwere.mp3
Channels : 2
Sample Rate : 44100
Precision : 16-bit
Duration : 00:05:15.64 = 13919592 samples = 23672.8 CDDA sectors
File Size : 10.5M
Bit Rate : 266k
Sample Encoding: MPEG audio (layer I, II or III)
Comments :
Title=Vom Geist Der Schwere
Artist=Urfaust
Album=Lo-Fi LowLive - Live In The Netherlands
Tracknumber=01/2
Year=2018
Discnumber=1/1



Register


Go to the top of the page
  Insert nick Quick quote
+Quote Post
 
Start new topic
Replies (1 - 2)
post Jan 14 2019, 20:40:06
Post #2

Восемь Литров
********
Group: Металариец
Posts: 857
Releases: 163
On Forums: 11 years 9 months
Thanks: 2147 time(s)
Albania


URFAUST IS REALLY A GREAT BAND
Go to the top of the page
  Insert nick Quick quote
+Quote Post
post Jan 16 2019, 01:15:11
Post #3

Социопат.Маргинал. Мизантроп.Нигилист. Перверзный нарциссист.
**************
Group: Металариец
Posts: 5,571
Releases: 666
From: Город-герой Ленинград
On Forums: 11 years 4 months
Thanks: 6518 time(s)
Russian Federation


ЦИТАТА(Абигор @ 14th January 2019 - 19:13:01) *
Vom Geist Der Schwere
Старая песня же,но крутая.
Go to the top of the page
  Insert nick Quick quote
+Quote Post

Reply to this topicStart new topic
1 User(s) are reading this topic (1 Guests and 0 Anonymous Users)
0 Members:

 



- Lo-Fi Version Support form
Copyrights and abuse reports form
Time is now: 5th July 2022 - 17:14:30