Welcome Guest ( Log In | Register )

> И неформату есть предел.

Рэп/хип-хоп/шансон/поп удаляются. Для них есть свои порталы.

> Strange Bar - Sounds Of Restless Soul [ep] (2019), Hard Rock
post Jan 15 2019, 17:39:04
Post #1

Литр
*
Group: Подсевший
Posts: 79
Releases: 5
From: Тула
On Forums: 11 years 9 months
Thanks: 136 time(s)
Russian Federation


(IMG:http://metalarea.org/images/audiocovers/2019_Jan/acov_tid315964_thumb.jpg)

*Artist: Strange Bar
*Album: Sounds Of Restless Soul [ep]
*Year: 2019
*Genre: Hard Rock
*Country: Russian Federation (IMG:http://metalarea.org/forum/style_images/flags/Russian%20Federation.png)
*Format: mp3@CBR320kbps
*Size: 55MB

Tracklist:
And The Soul Flew to Heaven 04:53
Rock My World 04:03
Whiskey... And a Powerful Engine 03:54
Whore, Be Afraid of a Stranger 03:42
Sounds of Restless Soul 03:20
The Park 03:33
******************************
Total playing time: 23:25

Extended info
This is an old American story of one guy ... Let everyone find his piece of restless soul in this music without words.
credits
released January 13, 2019

Line-up:

Andrey Polyakov - music, all guitars, bass

Special thanx:
Gennadiy Shershov - drums and support
Michael Korneev - mastering
Anastasiya Pankova - layout design


Technical info
(IMG:http://metalarea.org/images/spectrogram/2019_Jan/f8cc6485aa8a269232d43a9cd69f03ec.png)
Input File: Strange Bar - Sounds of Restless Soul - 02 Rock My World.mp3
Channels : 2
Sample Rate : 44100
Precision : 16-bit
Duration : 00:04:04.05 = 10762561 samples = 18303.7 CDDA sectors
File Size : 9.86M
Bit Rate : 323k
Sample Encoding: MPEG audio (layer I, II or III)
Comments :
Title=Rock My World
Artist=Strange Bar
Album=Sounds of Restless Soul
Tracknumber=2
Year=2019



Register


Go to the top of the page
  Insert nick Quick quote
+Quote Post
 
Start new topic
Replies (1 - 2)
post Jan 16 2019, 12:27:56
Post #2

Dr.
**************
Group: Металариец
Posts: 5,331
Releases: 0
From: Primorye.ru
On Forums: 10 years 3 weeks
Thanks: 1107 time(s)
Russian Federation




Thanks:
Go to the top of the page
  Insert nick Quick quote
+Quote Post
post May 2 2019, 19:09:47
Post #3

Group: Подсевший
Posts: 35
Releases: 0
On Forums: 12 years 3 months
Thanks: 6 time(s)
Russian Federation


(IMG:style_emoticons/default/9.gif)
Go to the top of the page
  Insert nick Quick quote
+Quote Post

Reply to this topicStart new topic
2 User(s) are reading this topic (2 Guests and 0 Anonymous Users)
0 Members:

 



- Lo-Fi Version Support form
Copyrights and abuse reports form
Time is now: 17th April 2021 - 23:42:50