Welcome Guest ( Log In | Register )

 
Reply to this topicStart new topic
> Volbeat - Let's Boogie! Live From Telia Parken [live] (2018), Heavy/Groove Metal (D)
post Jan 15 2019, 22:58:57
Post #1

local
**************
Group: Металариец
Posts: 2,715
Releases: 251
On Forums: 15 years 5 months
Thanks: 7111 time(s)
Unknown


(IMG:http://metalarea.org/images/audiocovers/2019_Jan/acov_tid315982_thumb.jpg)

*Artist: Volbeat
*Album: Let's Boogie! Live From Telia Parken [live]
*Year: 2018
*Genre: Heavy/Groove Metal
*Country: Denmark (IMG:http://metalarea.org/forum/style_images/flags/Denmark.png)
*Format: mp3@CBR320kbps
*Size: 315MB

Tracklist:
1. The Devil's Bleeding Crown
2. Heaven Nor Hell
3. Radio Girl
4. Lola Montez
5. Let It Burn
6. Doc Holiday
7. Sad Man's Tongue
8. 16 Dollars
9. 7 Shots
10. Fallen
11. Slaytan
12. Dead but Rising
13. Goodbye Forever
14. Maybellene I Hofteholder
15. The Everlasting
16. For Evigt
17. Evelyn
18. Lonesome Rider
19. Seal the Deal
20. The Garden's Tale
21. Guitar Gangsters and Cadillac Blood
22. Enter Sandman (Metallica cover)
23. A Warrior's Call
24. Black Rose
25. Pool of Booze, Booze, Booza
26. Still Counting
******************************
Total playing time: 2:16:20

Technical info
(IMG:http://metalarea.org/images/spectrogram/2019_Jan/f68fe9aac3ef089d74748b56e14ece70.png)
Input File: 11 Slaytan (Live from Telia Parken).mp3
Channels : 2
Sample Rate : 44100
Precision : 16-bit
Duration : 00:01:32.77 = 4091113 samples = 6957.68 CDDA sectors
File Size : 3.81M
Bit Rate : 329k
Sample Encoding: MPEG audio (layer I, II or III)
Comments :
Title=Slaytan (Live from Telia Parken)
Artist=Volbeat
Album=Let's Boogie! (Live from Telia Parken)
Tracknumber=11/26
Year=2018
Genre=Metal
Discnumber=1/1



Register


Go to the top of the page
  Insert nick Quick quote
+Quote Post

Reply to this topicStart new topic
1 User(s) are reading this topic (1 Guests and 0 Anonymous Users)
0 Members:

 



- Lo-Fi Version Support form
Copyrights and abuse reports form
Time is now: 25th May 2022 - 20:52:23