Welcome Guest ( Log In | Register )

 
Reply to this topicStart new topic
> Headless Hate - Hail The Hates!! [ep] (2018), Thrash/Death Metal
post Jan 16 2019, 00:15:10
Post #1

Правь статус, ####!111
**************
Group: Металариец
Posts: 29,247
Releases: 21470
From: Г.Харьков
On Forums: 10 years 1 week
Thanks: 443169 time(s)
Unknown


(IMG:https://metalarea.org/images/audiocovers/2019_Jan/acov_tid315983_thumb.jpg)

*Artist: Headless Hate
*Album: Hail The Hates!! [ep]
*Year: 2018
*Genre: Thrash/Death Metal
*Country: Mexico (IMG:https://metalarea.org/forum/style_images/flags/Mexico.png)
*Format: mp3@CBR320kbps
*Size: 81MB

Tracklist:
1. Headless Hate 06:16
2. Destroy the Zone 05:16
3. Raising Dead 05:50
4. Death to All 04:00
5. The War Is Done 05:45
6. Army of Hate 08:09
******************************
Total playing time: 35:16



Extended info
Kike (The Dicktator) Bass
Charly Grind Drums
Josh (Kruzpe) Guitar
Dany (The Kreator) Guitar
Edu (Corpse Joker) Vocal



Technical info
(IMG:https://metalarea.org/images/spectrogram/2019_Jan/80712249a11d6a2708dd6894cf229a3b.png)
Input File: 03 - Raising Dead.mp3
Channels : 2
Sample Rate : 44100
Precision : 16-bit
Duration : 00:05:50.09 = 15438793 samples = 26256.5 CDDA sectors
File Size : 14.1M
Bit Rate : 323k
Sample Encoding: MPEG audio (layer I, II or III)
Comments :
Title=Raising Dead
Artist=Headless Hate
Album=Hail the Hates!!
Tracknumber=3
Year=2018



Register


Go to the top of the page
  Insert nick Quick quote
+Quote Post

Reply to this topicStart new topic
1 User(s) are reading this topic (1 Guests and 0 Anonymous Users)
0 Members:

 



- Lo-Fi Version Support form
Copyrights and abuse reports form
Time is now: 20th May 2022 - 09:45:00