Welcome Guest ( Log In | Register )

> Ewigheim - Irrlichter (2019), Gothic Metal (D8)
post Jan 17 2019, 11:41:52
Post #1

Аннигилятор пивА
Group Icon
Group: V.I.P
Posts: 52,358
Releases: 16557
From: Koenigsberg - TILZIT
On Forums: 13 years 2 months
Thanks: 361861 time(s)
Russian Federation


(IMG:https://metalarea.org/images/audiocovers/2019_Jan/acov_tid316031_thumb.jpg)

*Artist: Ewigheim
*Album: Irrlichter
*Year: 2019
*Genre: Gothic Metal
*Country: Germany (IMG:https://metalarea.org/forum/style_images/flags/Germany.png)
*Format: mp3@CBR320kbps
*Size: 104MB

Tracklist:
01. Und es wird Licht
02. Alles wird gut
03. Leuchtturm
04. C'est la vie...
05. Verzeih mir
06. Nackt und blutend
07. Ein Flügel bleibt dir noch
08. Vom Mond gemalt
09. Spinnenkind
10. Irrlicht
******************************
Total playing time: 44:56



Extended info
Yantit - Guitars, Programming (1999-present) See also: Eisregen, ex-Panzerkreutz, ex-Transilvanian Beat Club, ex-Marienbad
Allen B. Konstanz - Vocals, Drums, Piano (1999-present) See also: The Vision Bleak, Empyrium, ex-Panzerkreutz, ex-Marienbad, Oul, ex-Asgaia, ex-Nox Mortis
Markus Stock - Guitars (lead) (2012-present) See also: Deinonychus, Empyrium, Eudaimony, Noekk, Sun of the Sleepless, The Vision Bleak, ex-Nachtmahr, ex-Autumnblaze, ex-Dornenreich
West - Bass (2013-present) See also: Hämatom, Eisregen, ex-Panzerkreutz, ex-Marienbad


Technical info
(IMG:https://metalarea.org/images/spectrogram/2019_Jan/fdb57b2b72671ea0ef8f46fdc1167974.png)
Input File: 2 - Alles wird gut.mp3
Channels : 2
Sample Rate : 44100
Precision : 16-bit
Duration : 00:04:15.60 = 11271784 samples = 19169.7 CDDA sectors
File Size : 10.3M
Bit Rate : 323k
Sample Encoding: MPEG audio (layer I, II or III)
Comments :
Title=Alles wird gut
Artist=Ewigheim
Album=Irrlichter
Tracknumber=2
Year=2019
Genre=Pop;Rock
Discnumber=1



Register


Go to the top of the page
  Insert nick Quick quote
+Quote Post
 
Start new topic
Replies (1 - 4)
post Jan 17 2019, 13:02:00
Post #2

Правь статус, ####!111
**************
Group: Металариец
Posts: 42,304
Releases: 638
On Forums: 10 years 2 months
Thanks: 33157 time(s)
Russian Federation


@320

Register


Go to the top of the page
  Insert nick Quick quote
+Quote Post
post Jan 17 2019, 15:06:14
Post #3

Ъ
**************
Group: Металариец
Posts: 9,632
Releases: 9
On Forums: 10 years 7 months
Thanks: 1875 time(s)
Sweden


Подумал может закрывашка такая скучная, но другие превью такие же спокойной ночи малыши.



Thanks:
(1) artscald,
Go to the top of the page
  Insert nick Quick quote
+Quote Post
post Feb 2 2019, 18:04:29
Post #4

Перевозчик
**************
Group: Металариец
Posts: 2,986
Releases: 0
On Forums: 11 years 1 month
Thanks: 639 time(s)
Russian Federation


Это больше дарк, судя по выложенным трекам.
Go to the top of the page
  Insert nick Quick quote
+Quote Post
post Apr 11 2019, 14:58:21
Post #5

Четыре Литра
****
Group: Металариец
Posts: 336
Releases: 11
On Forums: 10 years 5 months
Thanks: 249 time(s)
United Kingdom


Очень качественный дарк-метал похожий, безусловно, на The Vision Bleak.
В копилочку.

Обложка альбома Sakai Hōitsu (XVIII-го века облога то бишь)
Go to the top of the page
  Insert nick Quick quote
+Quote Post

Reply to this topicStart new topic
2 User(s) are reading this topic (2 Guests and 0 Anonymous Users)
0 Members:

 



- Lo-Fi Version Support form
Copyrights and abuse reports form
Time is now: 19th August 2019 - 07:22:50