Welcome Guest ( Log In | Register )

> Medeia - Xenosis (2019), Progressive Melodic Death Metal (D7)
post Jan 17 2019, 12:18:12
Post #1

Аннигилятор пивА
Group Icon
Group: V.I.P
Posts: 52,358
Releases: 16557
From: Koenigsberg - TILZIT
On Forums: 13 years 2 months
Thanks: 361924 time(s)
Russian Federation


(IMG:https://metalarea.org/images/audiocovers/2019_Jan/acov_tid316037_thumb.jpg)

*Artist: Medeia
*Album: Xenosis
*Year: 2019
*Genre: Progressive Melodic Death Metal
*Country: Finland (IMG:https://metalarea.org/forum/style_images/flags/Finland.png)
*Format: mp3@CBR320kbps
*Size: 103MB

Tracklist:
01. Prology
02. Insectia
03. Shadowmaker
04. Phenomenon
05. Collision Imminent
06. I’m the Abyss
07. Ascension
08. Nectar of the Gods
09. Xenosis
10. All That's Left
******************************
Total playing time: 44:01



Extended info
Pekko Mörö - Guitars (Best Friends Forever, ex-Pofony)
Samuli Kuusinen - Bass, Vocals (2002-present) See also: ex-Crashed, ex-Steep, ex-Uttervoid
Janne Putkisaari - Drums, Vocals (2002-present) See also: ex-Pofony, ex-Hukutus
Samuli Peltola - Guitars, Vocals (2002-present) See also: Best Friends Forever
Laura Dziadulewicz - Keyboards, Piano, Vocals (female) (2007-present)
See also: Ensiferum, ex-MyGrain
Frans Aalto - Vocals (lead) (2014-present) See also: ex-Chaos Infinitum, ex-Causemos


Technical info
(IMG:https://metalarea.org/images/spectrogram/2019_Jan/024fe6de546ece2baff74c47f72e17bb.png)
Input File: 02 - Insectia.mp3
Channels : 2
Sample Rate : 44100
Precision : 16-bit
Duration : 00:04:34.96 = 12125604 samples = 20621.8 CDDA sectors
File Size : 11.1M
Bit Rate : 323k
Sample Encoding: MPEG audio (layer I, II or III)
Comments :
Title=Insectia
Artist=Medeia
Album=Xenosis
Tracknumber=2
Year=2019
Discnumber=1



Register


Go to the top of the page
  Insert nick Quick quote
+Quote Post
 
Start new topic
Replies (1 - 6)
post Jan 17 2019, 12:58:36
Post #2

Аннигилятор пивА
Group Icon
Group: V.I.P
Posts: 52,358
Releases: 16557
From: Koenigsberg - TILZIT
On Forums: 13 years 2 months
Thanks: 361924 time(s)
Russian Federation



MIRROR
Register



Thanks:
(1) Ostinato,
Go to the top of the page
  Insert nick Quick quote
+Quote Post
post Jan 17 2019, 13:52:55
Post #3

hearer & reader
**************
Group: Металариец
Posts: 7,965
Releases: 103
From: Moscow
On Forums: 11 years 11 months
Thanks: 7464 time(s)
Russian Federation


Ню-метл?


Thanks:
(1) Andrew,
Go to the top of the page
  Insert nick Quick quote
+Quote Post
post Jan 17 2019, 14:07:06
Post #4

Аннигилятор пивА
Group Icon
Group: V.I.P
Posts: 52,358
Releases: 16557
From: Koenigsberg - TILZIT
On Forums: 13 years 2 months
Thanks: 361924 time(s)
Russian Federation


ЦИТАТА(AHBAnep @ Jan 17 2019, 12:52:55) *
Ню-метл?

это с какого перепугу? превью слухани, скорее эпик мело дэт с плюшками
Go to the top of the page
  Insert nick Quick quote
+Quote Post
post Jan 17 2019, 15:31:06
Post #5

Ъ
**************
Group: Металариец
Posts: 9,646
Releases: 9
On Forums: 10 years 7 months
Thanks: 1881 time(s)
Sweden


Осилил пол альбома, третьесорт, очень однообразно и надобности в теги ставить прог - никакой, модерн или грув, по вкусу.


Thanks:
Go to the top of the page
  Insert nick Quick quote
+Quote Post
post Jan 17 2019, 15:41:23
Post #6

тебе 28, а ты все реверсами балуешься
***********
Group: Металариец
Posts: 1,707
Releases: 4
On Forums: 11 years 4 weeks
Thanks: 483 time(s)
Russian Federation


ЦИТАТА(DenisKov @ Jan 17 2019, 17:31:06) *
Осилил пол альбома, третьесорт, очень однообразно и надобности в теги ставить прог - никакой, модерн или грув, по вкусу.


Вот да, что клип наворотили, что музыку кусками накидали, не цепляет.
Go to the top of the page
  Insert nick Quick quote
+Quote Post
post Jan 17 2019, 16:57:26
Post #7

Правь статус, ####!111
**************
Group: Металариец
Posts: 2,558
Releases: 7
From: Dnipro
On Forums: 11 years 1 month
Thanks: 750 time(s)
Ukraine


Какие они все в клипе погнившие в нарывах, а тетке даже тараканы глазик выгрызли (IMG:style_emoticons/default/25.gif)
Go to the top of the page
  Insert nick Quick quote
+Quote Post

Reply to this topicStart new topic
2 User(s) are reading this topic (2 Guests and 0 Anonymous Users)
0 Members:

 



- Lo-Fi Version Support form
Copyrights and abuse reports form
Time is now: 24th August 2019 - 17:46:39