Welcome Guest ( Log In | Register )

> Velian - Godless (2019), Melodic Death/Dark Metal
post Jan 18 2019, 11:37:06
Post #1

Аннигилятор пивА
Group Icon
Group: V.I.P
Posts: 52,358
Releases: 16557
From: Koenigsberg - TILZIT
On Forums: 13 years 2 months
Thanks: 361887 time(s)
Russian Federation


(IMG:https://metalarea.org/images/audiocovers/2019_Jan/acov_tid316101_thumb.jpg)

*Artist: Velian
*Album: Godless
*Year: 2019
*Genre: Melodic Death/Dark Metal
*Country: Bulgaria (IMG:https://metalarea.org/forum/style_images/flags/Bulgaria.png)
*Format: mp3@CBR320kbps
*Size: 108MB

Tracklist:
01. Silent Assassin
02. Fireflies
03. Broken
04. Godless
05. The Darkness Within
06. Maiden of Stone
07. Spirits
08. Burning Halo
09. Building Cages
10. In the Name of Power
******************************
Total playing time: 46:50




Extended info
Ivan Ivanov - Vocals;
Dilian Nedev - Guitars, Keys;
Vasil Simeonov - Guitars;
Antonio Mitov - Bass;
Velizar Bolchev - Drums


Technical info
(IMG:https://metalarea.org/images/spectrogram/2019_Jan/9feb1c41b74da9b2c11f150625b2a274.png)
Input File: 3 - Broken.mp3
Channels : 2
Sample Rate : 44100
Precision : 16-bit
Duration : 00:04:36.05 = 12173981 samples = 20704 CDDA sectors
File Size : 11.1M
Bit Rate : 323k
Sample Encoding: MPEG audio (layer I, II or III)
Comments :
Title=Broken
Artist=Velian
Album=Godless
Tracknumber=3
Year=2019
Genre=Metal
Discnumber=1



Register


Go to the top of the page
  Insert nick Quick quote
+Quote Post
 
Start new topic
Replies (1 - 6)
post Jan 18 2019, 16:06:50
Post #2

тебе 28, а ты все реверсами балуешься
***********
Group: Металариец
Posts: 1,707
Releases: 4
On Forums: 11 years 3 weeks
Thanks: 483 time(s)
Russian Federation


А что, как минимум интересно по превьюхе, ожидал более плохого качества звука из Болгарии.
Go to the top of the page
  Insert nick Quick quote
+Quote Post
post Jan 18 2019, 17:06:05
Post #3

Аннигилятор пивА
Group Icon
Group: V.I.P
Posts: 52,358
Releases: 16557
From: Koenigsberg - TILZIT
On Forums: 13 years 2 months
Thanks: 361887 time(s)
Russian Federation


MIRROR
Register


Thanks:
(1) wn129aa,
Go to the top of the page
  Insert nick Quick quote
+Quote Post
post Jan 19 2019, 21:07:56
Post #4

MDM-Thrash Metal
**************
Group: Металариец
Posts: 8,533
Releases: 565
From: Одесса
On Forums: 12 years 1 week
Thanks: 16576 time(s)
Ukraine


...чистый вокал (IMG:style_emoticons/default/22.gif)
Go to the top of the page
  Insert nick Quick quote
+Quote Post
post Jan 20 2019, 06:24:28
Post #5

Ъ
**************
Group: Металариец
Posts: 9,632
Releases: 9
On Forums: 10 years 7 months
Thanks: 1876 time(s)
Sweden


ЦИТАТА(Andrew @ Jan 20 2019, 03:07:56) *
...чистый вокал (IMG:style_emoticons/default/22.gif)


Когда в тегах - Дарк, надо сразу быть к этому готовым (IMG:style_emoticons/default/1488.gif)


Thanks:
(1) krotovich,
Go to the top of the page
  Insert nick Quick quote
+Quote Post
post Jan 20 2019, 09:25:31
Post #6

hearer & reader
**************
Group: Металариец
Posts: 7,954
Releases: 103
From: Moscow
On Forums: 11 years 11 months
Thanks: 7457 time(s)
Russian Federation


Это же Wartime, только мутноватый. Это интересно.
Go to the top of the page
  Insert nick Quick quote
+Quote Post
post Jan 20 2019, 10:34:07
Post #7

Аннигилятор пивА
Group Icon
Group: V.I.P
Posts: 52,358
Releases: 16557
From: Koenigsberg - TILZIT
On Forums: 13 years 2 months
Thanks: 361887 time(s)
Russian Federation


ЦИТАТА(Foneg @ Jan 18 2019, 15:06:50) *
А что, как минимум интересно по превьюхе, ожидал более плохого качества звука из Болгарии.

группа играет с 90х, правда техникал трэш и под другим названием
Go to the top of the page
  Insert nick Quick quote
+Quote Post

Reply to this topicStart new topic
2 User(s) are reading this topic (2 Guests and 0 Anonymous Users)
0 Members:

 



- Lo-Fi Version Support form
Copyrights and abuse reports form
Time is now: 21st August 2019 - 14:36:02