Welcome Guest ( Log In | Register )

> Velnezers - I: Es Uzcēlu Durvis Tīrumā (2019), Progressive Black Metal (D4)
post Jan 19 2019, 15:38:38
Post #1

Аннигилятор пивА
Group Icon
Group: V.I.P
Posts: 52,360
Releases: 16550
From: Koenigsberg - TILZIT
On Forums: 14 years 13 hours
Thanks: 365253 time(s)
Russian Federation


(IMG:https://metalarea.org/images/audiocovers/2019_Jan/acov_tid316158_thumb.jpg)

*Artist: Velnezers
*Album: I: Es Uzcēlu Durvis Tīrumā
*Year: 2019
*Genre: Progressive Black Metal
*Country: Latvia (IMG:https://metalarea.org/forum/style_images/flags/Latvia.png)
*Format: mp3@CBR320kbps
*Size: 119MB

Tracklist:
1. Ausma 01:01
2. Vērotājs 06:38
3. Kā Pamests Raud - Bez Asarām 05:46
4. Nātre 05:20
5. Attāla Sēru Dziesma 06:17
6. Meži Deg, Dūmi kūp III 06:16
7. Gaisa Bedre 05:33
8. Es Uzcēlu Durvis Tīrumā 08:24
9. Tīra Ticība 05:20
******************************
Total playing time: 50:35




Extended info
Svēte - Vocals, Guitar;
Eremīts - Guitar;
Rēgs - Bass;
Brūce - Drums.


Technical info
(IMG:https://metalarea.org/images/spectrogram/2019_Jan/5cde3dd63e7d2ba3e12dbd7d7e4f4951.png)
Input File: 07 Gaisa Bedre.mp3
Channels : 2
Sample Rate : 44100
Precision : 16-bit
Duration : 00:05:33.47 = 14706071 samples = 25010.3 CDDA sectors
File Size : 13.6M
Bit Rate : 326k
Sample Encoding: MPEG audio (layer I, II or III)
Comments :
Title=Gaisa Bedre
Artist=Velnezers
Album=I: Es Uzcēlu Durvis Tīrumā
Tracknumber=7/9
Year=2019
Genre=Black
Discnumber=1/1



Register


Go to the top of the page
  Insert nick Quick quote
+Quote Post
 
Start new topic
Replies (1 - 3)
post Jan 22 2019, 10:22:50
Post #2

...Only Death Is Real...
**************
Group: Металариец
Posts: 2,835
Releases: 16
On Forums: 9 years 10 months
Thanks: 1839 time(s)
Antarctica


Зеркало на оба альбома
Register


Thanks:
Go to the top of the page
  Insert nick Quick quote
+Quote Post
post May 23 2020, 11:00:38
Post #3

Литр
*
Group: Подсевший
Posts: 61
Releases: 11
From: Якутия
On Forums: 12 years 2 weeks
Thanks: 171 time(s)
Russian Federation


Перезалейте пожалуйста
Go to the top of the page
  Insert nick Quick quote
+Quote Post
post May 23 2020, 11:58:20
Post #4

Quaerite Lux in Tenebris
**************
Group: Металариец
Posts: 2,524
Releases: 45
From: Micsődőllő
On Forums: 9 years 10 months
Thanks: 4998 time(s)
Unknown


Register


Thanks:
Go to the top of the page
  Insert nick Quick quote
+Quote Post

Reply to this topicStart new topic
2 User(s) are reading this topic (2 Guests and 0 Anonymous Users)
0 Members:

 



- Lo-Fi Version Support form
Copyrights and abuse reports form
Time is now: 28th May 2020 - 09:17:28