Welcome Guest ( Log In | Register )

> Velnezers - II: Drīz Mūsu Gravās Atkal Zāle Dīgs (2019), Progressive Black Metal (D4)
post Jan 19 2019, 15:40:25
Post #1

Аннигилятор пивА
Group Icon
Group: V.I.P
Posts: 52,360
Releases: 16550
From: Koenigsberg - TILZIT
On Forums: 14 years 17 hours
Thanks: 365254 time(s)
Russian Federation


(IMG:https://metalarea.org/images/audiocovers/2019_Jan/acov_tid316159_thumb.jpg)

*Artist: Velnezers
*Album: II: Drīz Mūsu Gravās Atkal Zāle Dīgs
*Year: 2019
*Genre: Progressive Black Metal
*Country: Latvia (IMG:https://metalarea.org/forum/style_images/flags/Latvia.png)
*Format: mp3@CBR320kbps
*Size: 108MB

Tracklist:
1. Nakts 02:42
2. Tāles Man Neaiziet 06:41
3. Vellata 03:53
4. Ārā 04:42
5. Cērt Pātaga Miesu 05:23
6. Tas, Viss 04:55
7. Perfekta Medicīna 04:55
8. Atgriezties Cerēja Visi 06:05
9. Drīz Mūsu Gravās Atkal Zāle Dīgs 06:16
******************************
Total playing time: 45:32




Extended info
Svēte - Vocals, Guitar;
Eremīts - Guitar;
Rēgs - Bass;
Brūce - Drums.


Technical info
(IMG:https://metalarea.org/images/spectrogram/2019_Jan/a960fdb20ebb86749275e72c11843c5c.png)
Input File: 03 Vellata.mp3
Channels : 2
Sample Rate : 44100
Precision : 16-bit
Duration : 00:03:53.86 = 10313270 samples = 17539.6 CDDA sectors
File Size : 9.63M
Bit Rate : 329k
Sample Encoding: MPEG audio (layer I, II or III)
Comments :
Title=Vellata
Artist=Velnezers
Album=II: Drīz Mūsu Gravās Atkal Zāle Dīgs
Tracknumber=3/9
Year=2019
Genre=Black
Discnumber=1/1



Register


Go to the top of the page
  Insert nick Quick quote
+Quote Post
 
Start new topic
Replies (1 - 3)
post Jan 22 2019, 10:22:28
Post #2

...Only Death Is Real...
**************
Group: Металариец
Posts: 2,835
Releases: 16
On Forums: 9 years 10 months
Thanks: 1840 time(s)
Antarctica


Зеркало на оба альбома
Register


Go to the top of the page
  Insert nick Quick quote
+Quote Post
post May 23 2020, 11:00:26
Post #3

Литр
*
Group: Подсевший
Posts: 61
Releases: 11
From: Якутия
On Forums: 12 years 2 weeks
Thanks: 171 time(s)
Russian Federation


Перезалейте пожалуйста
Go to the top of the page
  Insert nick Quick quote
+Quote Post
post May 23 2020, 11:59:29
Post #4

Quaerite Lux in Tenebris
**************
Group: Металариец
Posts: 2,524
Releases: 45
From: Micsődőllő
On Forums: 9 years 10 months
Thanks: 5003 time(s)
Unknown


Register


Thanks:
Go to the top of the page
  Insert nick Quick quote
+Quote Post

Reply to this topicStart new topic
1 User(s) are reading this topic (1 Guests and 0 Anonymous Users)
0 Members:

 



- Lo-Fi Version Support form
Copyrights and abuse reports form
Time is now: 28th May 2020 - 13:59:34