Welcome Guest ( Log In | Register )

> 

Здесь релизы с живыми прямыми ссылками на lossless

> Dorso - Bajo Una Luna Cámbrica (1989), Avant-Garde Thrash Metal/Grindcore/Experimental Metal
post Jan 22 2019, 14:39:53
Post #1

Join my religion, or die
**************
Group: Металариец
Posts: 10,324
Releases: 1434
From: Питера
On Forums: 9 years 9 months
Thanks: 18168 time(s)
Russian Federation


(IMG:http://metalarea.org/images/audiocovers/2019_Jan/acov_tid316291_thumb.jpg)

*Artist: Dorso
*Album: Bajo Una Luna Cámbrica
*Year: 1989
*Genre: Avant-Garde Thrash Metal/Grindcore/Experimental Metal
*Country: Chile (IMG:http://metalarea.org/forum/style_images/flags/Chile.png)
*Format: mp3@CBR320kbps
*Size: 90MB

Tracklist:
01. Obertura 01:03
02. Cambric Dreams 05:20
03. Críptica visión 03:47
04. Vuela en tu dragón 03:07
05. Cíclope 07:37
06. Hidra 02:45
07. En los alrededores del templo 04:40
08. Suite 01:55
09. Vuelo del terodáctilo 03:00
10. Expelido del vientre 05:23
******************************
Total playing time: 38:37

Extended info
Теги с Архивов:
From old-school speed/thrash metal, Genesis-oriented progressive rock, grind/death, heavy metal to post-thrash and even black metal.
Как-то так...


Technical info
(IMG:http://metalarea.org/images/spectrogram/2019_Jan/174363c7ec697c41374512c83988d4ec.png)
Input File: 07 En los Alrededores del Templo.mp3
Channels : 2
Sample Rate : 44100
Precision : 16-bit
Duration : 00:04:40.00 = 12348000 samples = 21000 CDDA sectors
File Size : 11.4M
Bit Rate : 327k
Sample Encoding: MPEG audio (layer I, II or III)
Comments :
Title=En los Alrededores del Templo
Artist=Dorso
Album=1989 Bajo una Luna Cámbrica
Tracknumber=7
Year=1989
Genre=Metal



Register


Go to the top of the page
  Insert nick Quick quote
+Quote Post
 
Start new topic
Replies (1 - 2)
post Feb 2 2019, 23:48:04
Post #2

Два Литра
**
Group: Завсегдатай
Posts: 178
Releases: 0
On Forums: 8 years 1 month
Thanks: 51 time(s)
Lithuania


Король транскодинга...когда то сравнивал звучание и спектры его фейк 320 - мой 128 настоящие со времен соулсика звучали лучше (IMG:style_emoticons/default/20.gif)
Go to the top of the page
  Insert nick Quick quote
+Quote Post
post Feb 3 2019, 05:40:38
Post #3


Group Icon
Group: S-moderation team
Posts: 11,163
Releases: 1438
From: Zagreb
On Forums: 8 years 4 months
Thanks: 47813 time(s)
Croatia


Register
Go to the top of the page
  Insert nick Quick quote
+Quote Post

Reply to this topicStart new topic
1 User(s) are reading this topic (1 Guests and 0 Anonymous Users)
0 Members:

 



- Lo-Fi Version Support form
Copyrights and abuse reports form
Time is now: 22nd July 2019 - 02:19:34