Welcome Guest ( Log In | Register )

> Adrenalizer - What A Rush [ep] (2019), Heavy Metal
post Jan 25 2019, 19:18:33
Post #1

Аннигилятор пивА
Group Icon
Group: V.I.P
Posts: 52,360
Releases: 16550
From: Koenigsberg - TILZIT
On Forums: 14 years 1 month
Thanks: 365582 time(s)
Russian Federation


(IMG:https://metalarea.org/images/audiocovers/2019_Jan/acov_tid316495_thumb.jpg)

*Artist: Adrenalizer
*Album: What A Rush [ep]
*Year: 2019
*Genre: Heavy Metal
*Country: Canada (IMG:https://metalarea.org/forum/style_images/flags/Canada.png)
*Format: mp3@CBR320kbps
*Size: 29MB

Tracklist:
01. Babylon
02. Saints of Circumstance
03. Suffer or Triumph
04. The Fallen
******************************
Total playing time: 13:28




Extended info
errible Terje - Vocals
Steve Goodtime - Guitar
Mitch Z - Guitar
Gab Hole - Bass
Jake Greasy - Drums


Technical info
(IMG:https://metalarea.org/images/spectrogram/2019_Jan/668edd650b3ac733a61a91377ee5dc76.png)
Input File: 02. Saints of Circumstance.mp3
Channels : 2
Sample Rate : 44100
Precision : 16-bit
Duration : 00:02:27.13 = 6488521 samples = 11034.9 CDDA sectors
File Size : 5.98M
Bit Rate : 325k
Sample Encoding: MPEG audio (layer I, II or III)
Comments :
Title=Saints of Circumstance
Artist=Adrenalizer
Album=What a Rush
Tracknumber=2
Year=2019
Discnumber=1



Register


Go to the top of the page
  Insert nick Quick quote
+Quote Post
 
Start new topic
Replies (1 - 1)
post Jun 30 2020, 19:52:51
Post #2

Четыре Литра
****
Group: Металариец
Posts: 310
Releases: 0
On Forums: 11 months 2 weeks
Thanks: 2 time(s)
Argentina


link caido
Go to the top of the page
  Insert nick Quick quote
+Quote Post

Reply to this topicStart new topic
1 User(s) are reading this topic (1 Guests and 0 Anonymous Users)
0 Members:

 



- Lo-Fi Version Support form
Copyrights and abuse reports form
Time is now: 8th July 2020 - 22:39:55