Welcome Guest ( Log In | Register )

> Tyrannic - Ethereal Sepulchre (2018), Blackened Thrash/Doom Metal
post Jan 26 2019, 20:30:09
Post #1

the faceless one
Group Icon
Group: S-moderation team
Posts: 9,246
Releases: 1898
On Forums: 11 years 4 months
Thanks: 112398 time(s)
Russian Federation


(IMG:http://metalarea.org/images/audiocovers/2019_Jan/acov_tid316550_thumb.jpg)

*Artist: Tyrannic
*Album: Ethereal Sepulchre
*Year: 2018
*Genre: Blackened Thrash/Doom Metal
*Country: Australia (IMG:http://metalarea.org/forum/style_images/flags/Australia.png)
*Format: mp3@CBR320kbps
*Size: 94MB

Tracklist:
1. Serpent Scythe 06:09
2. Possession Of Accursed Inheritance 12:14
3. Tyrannic Deluge 14:06
4. Ethereal Sepulchre 07:01
******************************
Total playing time: 39:30



Extended info
Séance Records,
August 27th, 2018.


Technical info
(IMG:http://metalarea.org/images/spectrogram/2019_Jan/89661e2ce89ad6fdd643b38750e2edec.png)
Input File: 04 - Ethereal Sepulchre.mp3
Channels : 2
Sample Rate : 44100
Precision : 16-bit
Duration : 00:07:01.20 = 18574832 samples = 31589.9 CDDA sectors
File Size : 16.8M
Bit Rate : 320k
Sample Encoding: MPEG audio (layer I, II or III)
Comments :
Title=Ethereal Sepulchre
Artist=Tyrannic
Album=Ethereal Sepulchre
Tracknumber=04
Year=2018



Register


Go to the top of the page
  Insert nick Quick quote
+Quote Post
 
Start new topic
Replies (1 - 3)
post Jan 26 2019, 20:52:59
Post #2

the faceless one
Group Icon
Group: S-moderation team
Posts: 9,246
Releases: 1898
On Forums: 11 years 4 months
Thanks: 112398 time(s)
Russian Federation


В основе - угрожающий гибрид старой школы Black/Thrash Metal и инфернального Doom Metal: кощунственные возгласы, с технической точки зрения напоминающие одновременно вокальные техники Тома Арайя и Дэниеля Ростена, мрачные, подобные зловеще-яростному огню, риффы, вдохновенные басовые партии и тревожные ударные, концепция альбома, базирующаяся на одержимости и деяниях знаменательных тёмных личностей, движимых эмпирическими поклонениями Смерти. Альбом будет интересен в первую очередь поклонникам Black Sabbath, Celtic Frost, Emperor и Dark Funeral. Антигуманный и свирепый крестовый поход во имя мятежной и неистовой Троицы - Black, Thrash и Doom Metal.


Go to the top of the page
  Insert nick Quick quote
+Quote Post
post Jan 26 2019, 21:36:32
Post #3

Absorbence
***********
Group: Металариец
Posts: 1,701
Releases: 215
From: Vastland Abyss of Cthulhu
On Forums: 13 years 1 month
Thanks: 3723 time(s)
Canada


Thrash/Doom sounds unusually exciting
Go to the top of the page
  Insert nick Quick quote
+Quote Post
post Jan 29 2019, 09:29:02
Post #4

Правь статус, ####!111
**************
Group: Металариец
Posts: 2,560
Releases: 12
On Forums: 12 years 4 months
Thanks: 1445 time(s)
Russian Federation


Прекрасный во всех отношениях релиз. Не обошлось без влияний, но это не умаляет достоинства данной записи. ВИА абсолютно не распиарен, что только добавляет плюс к карме, ведь здесь действительно есть что слушать.


Thanks:
Go to the top of the page
  Insert nick Quick quote
+Quote Post

Reply to this topicStart new topic
2 User(s) are reading this topic (2 Guests and 0 Anonymous Users)
0 Members:

 



- Lo-Fi Version Support form
Copyrights and abuse reports form
Time is now: 14th December 2019 - 12:21:44