Welcome Guest ( Log In | Register )

 
Reply to this topicStart new topic
> Jawzael - Nibiri (2019), Black Metal
post Jan 29 2019, 17:59:22
Post #1

Аннигилятор пивА
Group Icon
Group: V.I.P
Posts: 52,278
Releases: 16523
From: Koenigsberg - TILZIT
On Forums: 12 years 8 months
Thanks: 357927 time(s)
Russian Federation


(IMG:https://metalarea.org/images/audiocovers/2019_Jan/acov_tid316685_thumb.jpg)

*Artist: Jawzael
*Album: Nibiri
*Year: 2019
*Genre: Black Metal
*Country: Iran (IMG:https://metalarea.org/forum/style_images/flags/Iran.png)
*Format: mp3@CBR320kbps
*Size: 109MB

Tracklist:
1. El 05:06
2. Mare Caspium 04:43
3. Heljupiter 06:09
4. Pandemonium Furnace 03:23
5. Nibiri 06:37
6. Omen of Fire 03:45
7. Chasm Abyssm 04:29
8. Pulsar Winds 05:25
9. Theorem 01:10
10. Eccentric Hallucinations 04:26
******************************
Total playing time: 45:13



Extended info
Возможно транскод


Technical info
(IMG:https://metalarea.org/images/spectrogram/2019_Jan/3cb9b4f542c62723fceb2c398d6f33a2.png)
Input File: 02. Mare Caspium.mp3
Channels : 2
Sample Rate : 48000
Precision : 16-bit
Duration : 00:04:43.63 = 13614480 samples ~ 21272.6 CDDA sectors
File Size : 11.6M
Bit Rate : 328k
Sample Encoding: MPEG audio (layer I, II or III)
Comments :
Title=Mare Caspium
Artist=Jawzael
Album=Nibiri
Tracknumber=02/10
Year=2019
Genre=Melodic Black Metal



Register


Go to the top of the page
  Insert nick Quick quote
+Quote Post

Reply to this topicStart new topic
1 User(s) are reading this topic (1 Guests and 0 Anonymous Users)
0 Members:

 



- Lo-Fi Version Support form
Copyrights and abuse reports form
Time is now: 19th February 2019 - 18:05:04