Welcome Guest ( Log In | Register )

 
Reply to this topicStart new topic
> Blackhole - Live Of Live [live] (2002), Speed/Power Metal (D12)
post Jan 30 2019, 08:36:31
Post #1

Join my religion, or die
**************
Group: Металариец
Posts: 10,338
Releases: 1435
From: Питера
On Forums: 9 years 10 months
Thanks: 18211 time(s)
Russian Federation


(IMG:http://metalarea.org/images/audiocovers/2019_Jan/acov_tid316702_thumb.jpg)

*Artist: Blackhole
*Album: Live Of Live [live]
*Year: 2002
*Genre: Speed/Power Metal
*Country: South Korea (IMG:http://metalarea.org/forum/style_images/flags/South%20Korea.png)
*Format: mp3@CBR320kbps
*Size: 186MB

Tracklist:
01. Take The Wind
02. Highway Star
03. Nightmare (Guitar Solo)
04. Children Of Chaos (Bass Solo)
05. Republic Of Korea (We Are The Champions, Bohemian Rhasody)
06. A Book Of Life
07. I Want To Break Free
08. Outro
09. Overture
10. End And Start
11. Knockin' On Heaven's Door
12. Address
13. Night Flight (Drum Solo)
14. From Beggar To Emperor
15. Creation
16. Deep Night Lyrics
******************************
Total playing time: 1:22:49

Extended info
Для полноты дискографии...
Архивы тэгуют как Speed/Power Metal
Менять не стал, хотя здесь скорее Хэви.


Technical info
(IMG:http://metalarea.org/images/spectrogram/2019_Jan/f9374b4c28184da7736546b8aedcced1.png)
Input File: 01 Take the Wind.mp3
Channels : 2
Sample Rate : 48000
Precision : 16-bit
Duration : 00:04:10.13 = 12006288 samples ~ 18759.8 CDDA sectors
File Size : 10.1M
Bit Rate : 324k
Sample Encoding: MPEG audio (layer I, II or III)
Comments :
Title=Take the Wind
Artist=Blackhole
Album=2002 Live of Live
Tracknumber=01/16
Year=2002
Genre=Heavy Metal



Register


Thanks:
(2) Rosen, varlam4,
Go to the top of the page
  Insert nick Quick quote
+Quote Post

Reply to this topicStart new topic
1 User(s) are reading this topic (1 Guests and 0 Anonymous Users)
0 Members:

 



- Lo-Fi Version Support form
Copyrights and abuse reports form
Time is now: 17th August 2019 - 18:36:56