Welcome Guest ( Log In | Register )

 
Reply to this topicStart new topic
> Belial - Strategy Is Everything [demo] (1994), Thrash Metal
post Jan 30 2019, 11:31:04
Post #1

Подвал
**************
Group: Металариец
Posts: 13,548
Releases: 7681
From: Far East (Khabarovsk)
On Forums: 10 years 5 months
Thanks: 73693 time(s)
Russian Federation


(IMG:http://metalarea.org/images/audiocovers/2019_Jan/acov_tid316710_thumb.jpg)

*Artist: Belial
*Album: Strategy Is Everything [demo]
*Year: 1994
*Genre: Thrash Metal
*Country: United States (IMG:http://metalarea.org/forum/style_images/flags/United%20States.png)
*Format: mp3@CBR128kbps (IMG:http://metalarea.org/images/bit_low.gif)
*Size: 19MB

Tracklist:
1. Rules And Regulations 03:12
2. Wall Of Humanity 02:12
3. Unseen 03:45
4. Birthright 02:54
5. Takeover 02:48
6. Instinct 03:18
7. The Earth Will Bleed ('94) 03:55
******************************
Total playing time: 22:04

(IMG:http://metalarea.org/images/youtube.png)

Extended info
Band from Cranbury, New Jersey.
Demo downloaded from site done by Ken Lawton (vox/guitar).


Technical info
(IMG:http://metalarea.org/images/spectrogram/2019_Jan/8b989bc638cd58471f2a9e7bcddede9e.png)
Input File: 01-Rules And Regulations.mp3
Channels : 2
Sample Rate : 44100
Precision : 16-bit
Duration : 00:03:12.55 = 8491367 samples = 14441.1 CDDA sectors
File Size : 3.08M
Bit Rate : 128k
Sample Encoding: MPEG audio (layer I, II or III)
Comments :
Title=Rules And Regulations
Artist=Belial (US, NJ)
Album=Strategy Is Everything (Demo)
Tracknumber=01
Year=1994
Genre=Thrash Metal



Register


Go to the top of the page
  Insert nick Quick quote
+Quote Post

Reply to this topicStart new topic
2 User(s) are reading this topic (2 Guests and 0 Anonymous Users)
0 Members:

 



- Lo-Fi Version Support form
Copyrights and abuse reports form
Time is now: 20th July 2019 - 05:57:11