Welcome Guest ( Log In | Register )

> Vandor - In The Land Of Vandor (2019), Power Metal
post Jan 30 2019, 11:37:59
Post #1

Аннигилятор пивА
Group Icon
Group: V.I.P
Posts: 52,360
Releases: 16555
From: Koenigsberg - TILZIT
On Forums: 13 years 6 months
Thanks: 363295 time(s)
Russian Federation


(IMG:https://metalarea.org/images/audiocovers/2019_Jan/acov_tid316711_thumb.jpg)

*Artist: Vandor
*Album: In The Land Of Vandor
*Year: 2019
*Genre: Power Metal
*Country: Sweden (IMG:https://metalarea.org/forum/style_images/flags/Sweden.png)
*Format: mp3@CBR320kbps
*Size: 124MB

Tracklist:
01. Dark Times (Intro)
02. Wrath Of The Night
03. Beneath The Sky
04. Warriors Of Time
05. Possessive Eyes
06. Uncover The Earth
07. Serving Their Need
08. With Bleeding Hands I Stand
09. The Land Of Vandor
10. In The Shadows (Outro)
******************************
Total playing time: 54:06




Extended info
Vide Bjerde - Lead Vocals, Guitar
Alve Bjerde - Bass, Backing Vocals
Jack L. Stroem - Lead Guitar, Backing Vocals
Uno Rosengren - Synthesizer


Technical info
(IMG:https://metalarea.org/images/spectrogram/2019_Jan/43afbe18543fbd1295e63911c667a17d.png)
Input File: 4 - Warriors of Time.mp3
Channels : 2
Sample Rate : 44100
Precision : 16-bit
Duration : 00:04:39.63 = 12331815 samples = 20972.5 CDDA sectors
File Size : 11.3M
Bit Rate : 322k
Sample Encoding: MPEG audio (layer I, II or III)
Comments :
Title=Warriors of Time
Artist=Vandor
Album=In the Land of Vandor
Tracknumber=4
Year=2019
Genre=Power Metal
Discnumber=1



Register


Go to the top of the page
  Insert nick Quick quote
+Quote Post
 
Start new topic
Replies (1 - 6)
post Jan 30 2019, 16:33:44
Post #2

Аннигилятор пивА
Group Icon
Group: V.I.P
Posts: 52,360
Releases: 16555
From: Koenigsberg - TILZIT
On Forums: 13 years 6 months
Thanks: 363295 time(s)
Russian Federation


MIRROR
Register



Thanks:
(2) ace73pq, Foneg,
Go to the top of the page
  Insert nick Quick quote
+Quote Post
post Jan 30 2019, 18:52:52
Post #3

тебе 29, а ты все реверсами балуешься
***********
Group: Металариец
Posts: 1,795
Releases: 4
On Forums: 11 years 4 months
Thanks: 533 time(s)
Russian Federation


Во, всё как надо!
Ничего лишнего, чистый павер (IMG:style_emoticons/default/20.gif)
Go to the top of the page
  Insert nick Quick quote
+Quote Post
post Jan 31 2019, 07:09:09
Post #4

Маньяк
**********
Group: Металариец
Posts: 1,212
Releases: 0
From: Moscow
On Forums: 12 years 1 month
Thanks: 697 time(s)
Russian Federation


QUOTE(Foneg @ 30th January 2019 - 20:52:52) *
Ничего лишнего, чистый павер


Ещё б припевов хуковых завезти, да вокалиста поскладнее. (IMG:style_emoticons/default/1488.gif)


Thanks:
(2) Foneg, Lucifer,
Go to the top of the page
  Insert nick Quick quote
+Quote Post
post Jan 31 2019, 08:31:14
Post #5

hearer & reader
**************
Group: Металариец
Posts: 8,235
Releases: 111
From: Moscow
On Forums: 12 years 3 months
Thanks: 7771 time(s)
Russian Federation


Всё стандартно. И с таким вокалом нет шансов выделиться.
Go to the top of the page
  Insert nick Quick quote
+Quote Post
post Feb 2 2019, 23:07:27
Post #6

Шесть Литров
******
Group: Металариец
Posts: 680
Releases: 0
From: Одесса-мама
On Forums: 10 years 10 months
Thanks: 218 time(s)
Ukraine


Спасибо!
Наконец появился альбом, который можно слушать больше одного раза.
Go to the top of the page
  Insert nick Quick quote
+Quote Post
post Apr 1 2019, 05:20:21
Post #7

i listen to black metal
**************
Group: Металариец
Posts: 2,456
Releases: 129
From: Москва-Лианозово
On Forums: 12 years 11 months
Thanks: 2079 time(s)
Russian Federation


чуть посильнее бы голос и всё!!!!


Thanks:
(1) Foneg,
Go to the top of the page
  Insert nick Quick quote
+Quote Post

Reply to this topicStart new topic
1 User(s) are reading this topic (1 Guests and 0 Anonymous Users)
0 Members:

 



- Lo-Fi Version Support form
Copyrights and abuse reports form
Time is now: 12th December 2019 - 17:40:42