Welcome Guest ( Log In | Register )

 
Reply to this topicStart new topic
> Belial - 1992 Demo [demo] (1992), Thrash Metal
post Jan 30 2019, 11:39:11
Post #1

Подвал
**************
Group: Металариец
Posts: 13,279
Releases: 7497
From: Far East (Khabarovsk)
On Forums: 10 years 2 months
Thanks: 71355 time(s)
Russian Federation


(IMG:http://metalarea.org/images/audiocovers/2019_Jan/acov_tid316712_thumb.gif)

*Artist: Belial
*Album: 1992 Demo [demo]
*Year: 1992
*Genre: Thrash Metal
*Country: United States (IMG:http://metalarea.org/forum/style_images/flags/United%20States.png)
*Format: mp3@CBR192kbps
*Size: 21MB

Tracklist:
1. The Earth Will Bleed 04:05
2. Minds Decay 04:13
3. Violently Suffering 04:02
4. Instrumental 03:49
******************************
Total playing time: 16:09

Extended info
Band from Cranbury, New Jersey.
Demo downloaded from site done by Ken Lawton (vox/guitar).


Technical info
(IMG:http://metalarea.org/images/spectrogram/2019_Jan/23d3f632e84869acfa9fb6dbc62ec2e7.png)
Input File: 01-The Earth Will Bleed.mp3
Channels : 2
Sample Rate : 44100
Precision : 16-bit
Duration : 00:04:05.04 = 10806308 samples = 18378.1 CDDA sectors
File Size : 5.88M
Bit Rate : 192k
Sample Encoding: MPEG audio (layer I, II or III)
Comments :
Title=The Earth Will Bleed ('92)
Artist=Belial (US, NJ)
Album=1992 Demo
Tracknumber=01
Year=1992
Genre=Thrash Metal



Register


Go to the top of the page
  Insert nick Quick quote
+Quote Post

Reply to this topicStart new topic
1 User(s) are reading this topic (1 Guests and 0 Anonymous Users)
0 Members:

 



- Lo-Fi Version Support form
Copyrights and abuse reports form
Time is now: 24th April 2019 - 01:46:50