Welcome Guest ( Log In | Register )

 
Reply to this topicStart new topic
> Apathy - Demo 1988 [demo] (1988), Thrash Metal (D)
post Jan 30 2019, 11:56:03
Post #1

Подвал
**************
Group: Металариец
Posts: 13,565
Releases: 7694
From: Far East (Khabarovsk)
On Forums: 10 years 6 months
Thanks: 74092 time(s)
Russian Federation


(IMG:http://metalarea.org/images/audiocovers/2019_Jan/acov_tid316714_thumb.jpg)

*Artist: Apathy
*Album: Demo 1988 [demo]
*Year: 1988
*Genre: Thrash Metal
*Country: United States (IMG:http://metalarea.org/forum/style_images/flags/United%20States.png)
*Format: mp3@CBR224kbps
*Size: 34MB

Tracklist:
1. Back To The Drawing Board 05:54
2. Cathoholics 06:04
3. Forgotten Victims 05:50
4. Corporate Anthem 03:42
******************************
Total playing time: 21:30

Extended info
Band from San Francisco, California.
Their second demo.


Technical info
(IMG:http://metalarea.org/images/spectrogram/2019_Jan/eb6333d0ea56da4c96388d72ba12476c.png)
Input File: 01-Back To The Drawing Board.mp3
Channels : 2
Sample Rate : 44100
Precision : 16-bit
Duration : 00:05:54.02 = 15612238 samples = 26551.4 CDDA sectors
File Size : 9.91M
Bit Rate : 224k
Sample Encoding: MPEG audio (layer I, II or III)
Comments :
Title=Back To The Drawing Board
Artist=Apathy (US, CA)
Album=Demo II 1988
Tracknumber=01
Year=1988
Genre=Thrash Metal



Register


Go to the top of the page
  Insert nick Quick quote
+Quote Post

Reply to this topicStart new topic
1 User(s) are reading this topic (1 Guests and 0 Anonymous Users)
0 Members:

 



- Lo-Fi Version Support form
Copyrights and abuse reports form
Time is now: 17th August 2019 - 19:07:07