Welcome Guest ( Log In | Register )

 
Reply to this topicStart new topic
> Hungry Johnny - Thrash Unlimited [demo] (2008), Thrash Metal
post Jan 30 2019, 21:11:24
Post #1

Два Литра
**
Group: Завсегдатай
Posts: 111
Releases: 10
On Forums: 3 weeks 22 hours
Thanks: 173 time(s)
Canada


(IMG:https://metalarea.org/images/audiocovers/2019_Jan/acov_tid316745_thumb.jpg)

*Artist: Hungry Johnny
*Album: Thrash Unlimited [demo]
*Year: 2008
*Genre: Thrash Metal
*Country: France (IMG:https://metalarea.org/forum/style_images/flags/France.png)
*Format: mp3@CBR320kbps
*Size: 30MB

Tracklist:
1. Red Alert 05:05
2. Falling Down 03:30
3. Beyond the Beyond 04:50
******************************
Total playing time: 13:25

Extended info
For fans of Nuclear Assault.
Thanks to edtrax for originally uploading.
Hungry Johnny changed their name to Headfirst. <br /https://www.metal-archives.com/bands/Hungry...hnny/3540269317 <br /https://www.spirit-of-metal.com/en/band/Hungry_Johnny
These 3 songs are probably from their 2008 demo ''Depraved at Birth'', which I don't have, so I do not know for sure.


Technical info
(IMG:https://metalarea.org/images/spectrogram/2019_Jan/387794d4dbd46f3c406df922db2dcf20.png)
Input File: 2 Falling Down.mp3
Channels : 2
Sample Rate : 44100
Precision : 16-bit
Duration : 00:03:30.02 = 9262014 samples = 15751.7 CDDA sectors
File Size : 8.40M
Bit Rate : 320k
Sample Encoding: MPEG audio (layer I, II or III)
Comments :
Title=Falling Down
Artist=Hungry Johnny
Album=Hungry Johnny



Register


Thanks:
Go to the top of the page
  Insert nick Quick quote
+Quote Post

Reply to this topicStart new topic
1 User(s) are reading this topic (1 Guests and 0 Anonymous Users)
0 Members:

 



- Lo-Fi Version Support form
Copyrights and abuse reports form
Time is now: 19th February 2019 - 19:08:56