Welcome Guest ( Log In | Register )

 
Reply to this topicStart new topic
> Bent - Fingerprint Of Impact (1999), Thrash/Groove Metal
post Jan 31 2019, 12:56:20
Post #1

Подвал
**************
Group: Металариец
Posts: 13,279
Releases: 7497
From: Far East (Khabarovsk)
On Forums: 10 years 2 months
Thanks: 71355 time(s)
Russian Federation


(IMG:http://metalarea.org/images/audiocovers/2019_Jan/acov_tid316782_thumb.PNG)

*Artist: Bent
*Album: Fingerprint Of Impact
*Year: 1999
*Genre: Thrash/Groove Metal
*Country: United States (IMG:http://metalarea.org/forum/style_images/flags/United%20States.png)
*Format: mp3@CBR192kbps
*Size: 64MB

Tracklist:
1. Lab Rat 04:55
2. Prosthetic Leader 02:34
3. Drive 02:23
4. Take 01:50
5. Fingerprint Of Impact 03:36
6. Relapse Into Progress 03:47
7. Desensitized 03:32
8. Selfish 02:51
9. Breaking Point 04:02
10. Bent 02:52
11. Betrayed 02:36
12. Conflict 04:16
13. Dead End 05:47
******************************
Total playing time: 45:01

Extended info
Band from Lancaster.


Technical info
(IMG:http://metalarea.org/images/spectrogram/2019_Jan/99f46c5ea38e377de6e1467fd0962766.png)
Input File: 01-Lab Rat.mp3
Channels : 2
Sample Rate : 44100
Precision : 16-bit
Duration : 00:04:55.35 = 13025111 samples = 22151.5 CDDA sectors
File Size : 7.09M
Bit Rate : 192k
Sample Encoding: MPEG audio (layer I, II or III)
Comments :
Title=Lab Rat
Artist=Bent (US)
Album=Fingerprint of Impact
Tracknumber=01
Year=1999
Genre=Metal



Register


Go to the top of the page
  Insert nick Quick quote
+Quote Post

Reply to this topicStart new topic
1 User(s) are reading this topic (1 Guests and 0 Anonymous Users)
0 Members:

 



- Lo-Fi Version Support form
Copyrights and abuse reports form
Time is now: 24th April 2019 - 00:52:24