Welcome Guest ( Log In | Register )

 
Reply to this topicStart new topic
> I.N.R.I. - All That Bleeds [demo] (1994), Power/Thrash Metal
post Jan 31 2019, 13:12:12
Post #1

Подвал
**************
Group: Металариец
Posts: 13,061
Releases: 7327
From: Far East (Khabarovsk)
On Forums: 10 years 3 weeks
Thanks: 69338 time(s)
Russian Federation


(IMG:http://metalarea.org/images/audiocovers/2019_Jan/acov_tid316786_thumb.jpg)

*Artist: I.N.R.I.
*Album: All That Bleeds [demo]
*Year: 1994
*Genre: Power/Thrash Metal
*Country: United States (IMG:http://metalarea.org/forum/style_images/flags/United%20States.png)
*Format: mp3@CBR192kbps
*Size: 49MB

Tracklist:
1. Intro / All That Bleeds 06:21
2. Human 04:04
3. War Head 04:52
4. Friend 03:51
5. Peace Within 01:04
6. Pendulam Of Hate 04:00
7. Code Of Silence 05:41
8. The Burning System 03:54
9. America (The Beautiful) 02:30
******************************
Total playing time: 36:17

(IMG:http://metalarea.org/images/myspace.png)
Preview 2

Extended info
Band from Muskegon, Michigan.


Technical info
(IMG:http://metalarea.org/images/spectrogram/2019_Jan/a798d140cc6e8965af4166603dbb95c7.png)
Input File: 02-Human.mp3
Channels : 2
Sample Rate : 44100
Precision : 16-bit
Duration : 00:04:04.07 = 10763663 samples = 18305.5 CDDA sectors
File Size : 5.86M
Bit Rate : 192k
Sample Encoding: MPEG audio (layer I, II or III)
Comments :
Title=Human
Artist=I.N.R.I. (US, MN)
Album=All That Bleeds (Demo)
Tracknumber=02
Year=1994
Genre=Metal



Register


Go to the top of the page
  Insert nick Quick quote
+Quote Post

Reply to this topicStart new topic
2 User(s) are reading this topic (2 Guests and 0 Anonymous Users)
0 Members:

 



- Lo-Fi Version Support form
Copyrights and abuse reports form
Time is now: 19th February 2019 - 18:42:42