Welcome Guest ( Log In | Register )

 
Reply to this topicStart new topic
> Morgoth - Evidence Of Power [demo] (1986), Heavy Metal (D)
post Jan 31 2019, 13:32:09
Post #1

Подвал
**************
Group: Металариец
Posts: 13,565
Releases: 7694
From: Far East (Khabarovsk)
On Forums: 10 years 6 months
Thanks: 74092 time(s)
Russian Federation


(IMG:http://metalarea.org/images/audiocovers/2019_Jan/acov_tid316789_thumb.jpg)

*Artist: Morgoth
*Album: Evidence Of Power [demo]
*Year: 1986
*Genre: Heavy Metal
*Country: Netherlands (IMG:http://metalarea.org/forum/style_images/flags/Netherlands.png)
*Format: mp3@CBR192kbps
*Size: 19MB

Tracklist:
1. Evidence Of Power 04:16
2. Attack From Above 03:49
3. Fist Of Fury 02:14
4. Heavens Torture 03:39
******************************
Total playing time: 13:58

Technical info
(IMG:http://metalarea.org/images/spectrogram/2019_Jan/0c7d0f191b8f59619f5c5c75fb9cebec.png)
Input File: 01-Evidence Of Power.mp3
Channels : 2
Sample Rate : 44100
Precision : 16-bit
Duration : 00:04:16.77 = 11323557 samples = 19257.8 CDDA sectors
File Size : 6.16M
Bit Rate : 192k
Sample Encoding: MPEG audio (layer I, II or III)
Comments :
Title=Evidence Of Power
Artist=Morgoth (Hol)
Album=Evidence Of Power (Demo)
Tracknumber=01
Year=1986
Genre=Heavy Metal



Register


Go to the top of the page
  Insert nick Quick quote
+Quote Post

Reply to this topicStart new topic
1 User(s) are reading this topic (1 Guests and 0 Anonymous Users)
0 Members:

 



- Lo-Fi Version Support form
Copyrights and abuse reports form
Time is now: 17th August 2019 - 19:08:19