Welcome Guest ( Log In | Register )

> Repugnatory - Destruyo Tu Cruz (2019), Old School Thrash/Black Metal
post Jan 31 2019, 18:08:31
Post #1

Аннигилятор пивА
Group Icon
Group: V.I.P
Posts: 52,356
Releases: 16556
From: Koenigsberg - TILZIT
On Forums: 13 years 1 month
Thanks: 361409 time(s)
Russian Federation


(IMG:https://metalarea.org/images/audiocovers/2019_Jan/acov_tid316814_thumb.jpg)

*Artist: Repugnatory
*Album: Destruyo Tu Cruz
*Year: 2019
*Genre: Old School Thrash/Black Metal
*Country: Chile (IMG:https://metalarea.org/forum/style_images/flags/Chile.png)
*Format: mp3@CBR320kbps
*Size: 60MB

Tracklist:
01. Clavaré tus Manos
02. Trono Infernal 666
03. En Nuestra Sangre esta su Maldición
04. Perversa Adicción
05. En las Garras del Mal
06. Acero del Infierno
07. Guerra proclamada por Satán
08. Destruyo tu Cruz
******************************
Total playing time: 26:17




Extended info
Humberthor Wild – Lead guitar / Vocals
Cosmic Demon – Rythm guitar
Lincoqueus – bass guitar
Amche - Drums


Technical info
(IMG:https://metalarea.org/images/spectrogram/2019_Jan/4d9f24d854a483dc42796580023ef749.png)
Input File: 02. Trono Infernal 666.mp3
Channels : 2
Sample Rate : 44100
Precision : 16-bit
Duration : 00:03:10.13 = 8384821 samples = 14259.9 CDDA sectors
File Size : 7.61M
Bit Rate : 320k
Sample Encoding: MPEG audio (layer I, II or III)
Comments :
Title=Trono Infernal 666
Artist=Repugnatory
Album=Destruyo tu Cruz
Tracknumber=2
Year=2019
Genre=Black/Thrash Metal



Register


Go to the top of the page
  Insert nick Quick quote
+Quote Post
 
Start new topic
Replies (1 - 2)
post Jan 31 2019, 18:26:20
Post #2

Аннигилятор пивА
Group Icon
Group: V.I.P
Posts: 52,356
Releases: 16556
From: Koenigsberg - TILZIT
On Forums: 13 years 1 month
Thanks: 361409 time(s)
Russian Federation


https://www.youtube.com/watch?v=nRIGegR4i70&t=71s



Thanks:
(1) boby9052,
Go to the top of the page
  Insert nick Quick quote
+Quote Post
post Feb 1 2019, 00:22:48
Post #3

Три Литра
***
Group: Завсегдатай
Posts: 229
Releases: 0
From: Россия
On Forums: 7 years 5 months
Thanks: 80 time(s)
Russian Federation


released June 22, 2017



Thanks:
Go to the top of the page
  Insert nick Quick quote
+Quote Post

Reply to this topicStart new topic
2 User(s) are reading this topic (2 Guests and 0 Anonymous Users)
0 Members:

 



- Lo-Fi Version Support form
Copyrights and abuse reports form
Time is now: 18th July 2019 - 12:25:34