Welcome Guest ( Log In | Register )

 
Reply to this topicStart new topic
> Belching Penguin - Draft Beer... Not Me (1986), Hardcore/Thrash Metal
post Feb 3 2019, 04:41:59
Post #1

Подвал
**************
Group: Металариец
Posts: 13,061
Releases: 7327
From: Far East (Khabarovsk)
On Forums: 10 years 3 weeks
Thanks: 69338 time(s)
Russian Federation


(IMG:http://metalarea.org/images/audiocovers/2019_Feb/acov_tid316955_thumb.jpg)

*Artist: Belching Penguin
*Album: Draft Beer... Not Me
*Year: 1986
*Genre: Hardcore/Thrash Metal
*Country: United States (IMG:http://metalarea.org/forum/style_images/flags/United%20States.png)
*Format: mp3@CBR192kbps
*Size: 41MB

Tracklist:
1. There's Gonna Be A War 02:01
2. Better Off Dead 01:04
3. Dead People Can't Drive 01:23
4. Money Well Spent 01:27
5. Shitfaced 02:11
6. Box Lunch 01:19
7. My Friends 02:09
8. Forget The World 02:12
9. You Suck / Brain Damage 00:38
10. Governmental Screw-Over 01:12
11. Anorexic 01:37
12. Suburban Life 01:53
13. We're The Cops 01:51
14. My Girlfriend Is In Porno 01:40
15. There's No Food 01:26
16. Theme Of The Belching Penguins 01:29
17. Our Children Are Missing 02:53
18. Hangover 02:15
******************************
Total playing time: 30:40

Extended info
Band from Florida.


Technical info
(IMG:http://metalarea.org/images/spectrogram/2019_Feb/14b58002d0cd766c29dab828d1a13478.png)
Input File: 01-There\'s Gonna Be A War.mp3
Channels : 2
Sample Rate : 44100
Precision : 16-bit
Duration : 00:02:01.14 = 5342186 samples = 9085.35 CDDA sectors
File Size : 2.91M
Bit Rate : 192k
Sample Encoding: MPEG audio (layer I, II or III)
Comments :
Title=There's Gonna Be A War
Artist=Belching Penguin (US, FL)
Album=Draft Beer Not Me
Tracknumber=01
Year=1986
Genre=Hardcore



Register


Go to the top of the page
  Insert nick Quick quote
+Quote Post

Reply to this topicStart new topic
1 User(s) are reading this topic (1 Guests and 0 Anonymous Users)
0 Members:

 



- Lo-Fi Version Support form
Copyrights and abuse reports form
Time is now: 19th February 2019 - 18:34:42