Welcome Guest ( Log In | Register )

 
Reply to this topicStart new topic
> Absolute Disgrace - Condemned [demo] (2001), Death Metal
post Feb 3 2019, 05:03:46
Post #1

Подвал
**************
Group: Металариец
Posts: 13,061
Releases: 7327
From: Far East (Khabarovsk)
On Forums: 10 years 3 weeks
Thanks: 69337 time(s)
Russian Federation


(IMG:http://metalarea.org/images/audiocovers/2019_Feb/acov_tid316956_thumb.jpg)

*Artist: Absolute Disgrace
*Album: Condemned [demo]
*Year: 2001
*Genre: Death Metal
*Country: Brazil (IMG:http://metalarea.org/forum/style_images/flags/Brazil.png)
*Format: mp3@CBR192kbps
*Size: 14MB

Tracklist:
1. Condemned 03:14
2. Rot In Peace 04:05
3. Cannibals 03:10
******************************
Total playing time: 10:29


(IMG:http://metalarea.org/images/myspace.png)

Technical info
(IMG:http://metalarea.org/images/spectrogram/2019_Feb/2fcc21e129321543d8fefdffaa0bbf62.png)
Input File: 02-Rot In Peace.mp3
Channels : 2
Sample Rate : 44100
Precision : 16-bit
Duration : 00:04:05.17 = 10812041 samples = 18387.8 CDDA sectors
File Size : 5.89M
Bit Rate : 192k
Sample Encoding: MPEG audio (layer I, II or III)
Comments :
Title=Rot In Peace
Artist=Absolute Disgrace
Album=Condemned (Demo)
Tracknumber=02
Year=2001
Genre=Death Metal



Register


Go to the top of the page
  Insert nick Quick quote
+Quote Post

Reply to this topicStart new topic
1 User(s) are reading this topic (1 Guests and 0 Anonymous Users)
0 Members:

 



- Lo-Fi Version Support form
Copyrights and abuse reports form
Time is now: 19th February 2019 - 17:42:24