Welcome Guest ( Log In | Register )

 
Reply to this topicStart new topic
> Sabhankra - The Dream Is Dead [ep] (2019), Melodic Black/Death Metal (D)
post Feb 3 2019, 05:54:28
Post #1

Правь статус, ####!111
**************
Group: Металариец
Posts: 18,127
Releases: 12260
From: Г.Харьков
On Forums: 7 years 3 months
Thanks: 206605 time(s)
Unknown


(IMG:https://metalarea.org/images/audiocovers/2019_Feb/acov_tid316958_thumb.jpg)

*Artist: Sabhankra
*Album: The Dream Is Dead [ep]
*Year: 2019
*Genre: Melodic Black/Death Metal
*Country: Turkey (IMG:https://metalarea.org/forum/style_images/flags/Turkey.png)
*Format: mp3@CBR320kbps
*Size: 38MB

Tracklist:
1. The Dream Is Dead 05:57
2. Blood for Blood 06:48
3. Fight Back the Piercing Light 04:59
******************************
Total playing time: 17:44




Extended info
GooglePlay Rip
Savaş - Guitars & Vocals
Süha - Guitars
Gürkan - Bass
Rıdvan - Drums


Technical info
(IMG:https://metalarea.org/images/spectrogram/2019_Feb/57915a90013cde8c5f06315bce77659b.png)
Input File: 02 - Blood For Blood.mp3
Channels : 2
Sample Rate : 44100
Precision : 16-bit
Duration : 00:06:49.97 = 18079457 samples = 30747.4 CDDA sectors
File Size : 16.5M
Bit Rate : 323k
Sample Encoding: MPEG audio (layer I, II or III)
Comments :
Title=Blood For Blood
Artist=Sabhankra
Album=The Dream Is Dead
Tracknumber=2
Year=2019
Discnumber=1



Register


Go to the top of the page
  Insert nick Quick quote
+Quote Post

Reply to this topicStart new topic
1 User(s) are reading this topic (1 Guests and 0 Anonymous Users)
0 Members:

 



- Lo-Fi Version Support form
Copyrights and abuse reports form
Time is now: 19th August 2019 - 17:22:07