Welcome Guest ( Log In | Register )

 
Reply to this topicStart new topic
> Abscess - Demo 1 [demo] (1990), Death/Doom Metal (D)
post Feb 3 2019, 05:57:34
Post #1

Подвал
**************
Group: Металариец
Posts: 13,565
Releases: 7694
From: Far East (Khabarovsk)
On Forums: 10 years 6 months
Thanks: 74092 time(s)
Russian Federation


(IMG:http://metalarea.org/images/audiocovers/2019_Feb/acov_tid316959_thumb.jpg)

*Artist: Abscess
*Album: Demo 1 [demo]
*Year: 1990
*Genre: Death/Doom Metal
*Country: Netherlands (IMG:http://metalarea.org/forum/style_images/flags/Netherlands.png)
*Format: mp3@CBR192kbps
*Size: 13MB

Tracklist:
1. Intro 03:13
2. Unknown Title 03:11
3. Unknown Title 03:35
******************************
Total playing time: 9:59

Extended info
..with members of Ejaculation.


Technical info
(IMG:http://metalarea.org/images/spectrogram/2019_Feb/c4cad5dbcad819f39154b2e85e6405cc.png)
Input File: 02-Unknown Title.mp3
Channels : 2
Sample Rate : 44100
Precision : 16-bit
Duration : 00:03:11.02 = 8423894 samples = 14326.4 CDDA sectors
File Size : 4.59M
Bit Rate : 192k
Sample Encoding: MPEG audio (layer I, II or III)
Comment : 'Genre=????'



Register


Go to the top of the page
  Insert nick Quick quote
+Quote Post

Reply to this topicStart new topic
1 User(s) are reading this topic (1 Guests and 0 Anonymous Users)
0 Members:

 



- Lo-Fi Version Support form
Copyrights and abuse reports form
Time is now: 17th August 2019 - 19:07:21