Welcome Guest ( Log In | Register )

 
Reply to this topicStart new topic
> Antagonist - Promo 1999 [demo] (1999), Thrash/Death Metal (D17)
post Feb 3 2019, 06:04:59
Post #1

Подвал
**************
Group: Металариец
Posts: 13,061
Releases: 7327
From: Far East (Khabarovsk)
On Forums: 10 years 3 weeks
Thanks: 69338 time(s)
Russian Federation


(IMG:http://metalarea.org/images/audiocovers/2019_Feb/acov_tid316960_thumb.jpg)

*Artist: Antagonist
*Album: Promo 1999 [demo]
*Year: 1999
*Genre: Thrash/Death Metal
*Country: Germany (IMG:http://metalarea.org/forum/style_images/flags/Germany.png)
*Format: mp3@CBR192kbps
*Size: 11MB

Tracklist:
1. Recharged 04:49
2. Traveller 03:40
******************************
Total playing time: 8:29

(IMG:http://metalarea.org/images/myspace.png)

Technical info
(IMG:http://metalarea.org/images/spectrogram/2019_Feb/56c6b6e6c05cb5b8605b9ab3ad621310.png)
Input File: 01-Recharged.mp3
Channels : 2
Sample Rate : 44100
Precision : 16-bit
Duration : 00:03:38.40 = 9631220 samples = 16379.6 CDDA sectors
File Size : 5.24M
Bit Rate : 192k
Sample Encoding: MPEG audio (layer I, II or III)
Comments :
Title=Recharged
Artist=Antagonist (Ger)
Album=Promo '99
Tracknumber=01
Year=1999
Genre=Metal



Register


Go to the top of the page
  Insert nick Quick quote
+Quote Post

Reply to this topicStart new topic
2 User(s) are reading this topic (2 Guests and 0 Anonymous Users)
0 Members:

 



- Lo-Fi Version Support form
Copyrights and abuse reports form
Time is now: 19th February 2019 - 18:26:37